百度云資源論壇

 找回密碼
 立即注冊
搜索
打印 上一主題 下一主題

奇跡賽季 The.Miracle.Season.2018.1080p.BluRay.x264.DTS-HD.MA.5.1-FGT 9.46GB

[復制鏈接]
跳轉到指定樓層
樓主
帖子完整標題:奇跡賽季 The.Miracle.Season.2018.1080p.BluRay.x264.DTS-HD.MA.5.1-FGT 9.46GB




◎譯  名 奇跡賽季/Live Like Line/奇跡的賽季(臺)
◎片  名 The Miracle Season
◎年  代 2018
◎產  地 美國
◎類  別 劇情 / 運動
◎語  言 英語
◎上映日期 2018-04-06(美國)
◎IMDb評分  6.5/10 from 4375 users
◎片  長 101分鐘
◎導  演 肖恩·麥克納馬拉 Sean McNamara
◎編  劇 戴維·亞倫·科恩 David Aaron Cohen / 伊莉薩·松枝 Elissa Matsueda
◎主  演 海倫·亨特 Helen Hunt
       提拉·斯考比 Tiera Skovbye
       艾琳·莫里亞蒂 Erin Moriarty
       達妮卡·亞羅什 Danika Yarosh
       賈森·加里-斯坦福德 Jason Gray-Stanford
       威廉·赫特 William Hurt
       博爾克利·杜菲爾德 Burkely Duffield
       麗貝卡·斯塔巴 Rebecca Staab
       內斯塔·庫珀 Nesta Cooper
       貝利·斯科德里 Bailey Skodje
       娜塔利·夏普 Natalie Sharp
       阿瓦·格雷斯·庫珀 Ava Grace Cooper
       拉麗莎·阿爾布開克 Larissa Albuquerque
       莉蓮·道塞特-羅奇 Lillian Doucet-Roche
       肖恩·麥克納馬拉 Sean McNamara
       吉麗安·法爾給 Jillian Fargey
       史蒂文·里奇蒙德 Steven Richmond

◎標  簽 美國 | 體育 | 運動 | 青春 | 真人真事改編 | 2018 | 排球 | 劇情

◎簡  介

  電影改編自真實故事,本片講述的是美國一所高中女子排球隊在新賽季開始前突然遭遇明星球員離世的意外,失去了主心骨的隊員們意氣消沉斗志渙散,這時外冷內熱的主教練(海倫·亨特 飾)率領大家走出沮喪心情,頑強拼搏贏得州冠軍的感人故事。
Video
ID                                       : 1
Format                                   : AVC
Format/Info                              : Advanced Video Codec
Format settings                          : CABAC / 5 Ref Frames
Format settings, CABAC                   : Yes
Format settings, ReFrames                : 5 frames
Codec ID                                 : V_MPEG4/ISO/AVC
Duration                                 : 1 h 41 min
Bit rate                                 : 9 329 kb/s
Width                                    : 1 920 pixels
Height                                   : 808 pixels
Display aspect ratio                     : 2.40:1
Frame rate mode                          : Constant
Frame rate                               : 23.976 (24000/1001/189150) FPS
Color space                              : YUV
Chroma subsampling                       : 4:2:0
Bit depth                                : 8 bits
Scan type                                : Progressive
Bits/(Pixel*Frame)                       : 0.251
Stream size                              : 6.58 GiB (70%)
Title                                    : The.Miracle.Season.2018.1080p.BluRay.x264.DTS-HD.MA.5.1-FGT
Writing library                          : x264 core 155 r2901 7d0ff22
Encoding settings                        : cabac=1 / ref=5 / deblock=1:-3:-3 / analyse=0x3:0x113 / me=umh / subme=8 / psy=1 / psy_rd=1.00:0.00 / mixed_ref=1 / me_range=32 / chroma_me=1 / trellis=2 / 8x8dct=1 / cqm=0 / deadzone=21,11 / fast_pskip=1 / chroma_qp_offset=-2 / threads=24 / lookahead_threads=4 / sliced_threads=0 / nr=0 / decimate=1 / interlaced=0 / bluray_compat=0 / constrained_intra=0 / bframes=3 / b_pyramid=2 / b_adapt=2 / b_bias=0 / direct=3 / weightb=1 / open_gop=0 / weightp=2 / keyint=240 / keyint_min=24 / scenecut=40 / intra_refresh=0 / rc_lookahead=50 / rc=2pass / mbtree=1 / bitrate=9329 / ratetol=1.0 / qcomp=0.60 / qpmin=0 / qpmax=69 / qpstep=4 / cplxblur=20.0 / qblur=0.5 / ip_ratio=1.40 / aq=3:0.80
Default                                  : Yes
Forced                                   : No

Audio
ID                                       : 2
Format                                   : DTS
Format/Info                              : Digital Theater Systems
Format profile                           : MA / Core
Codec ID                                 : A_DTS
Duration                                 : 1 h 41 min
Bit rate mode                            : Variable / Constant
Bit rate                                 : 4 059 kb/s / 1 509 kb/s
Channel(s)                               : 6 channels
Channel positions                        : Front: L C R, Side: L R, LFE
Sampling rate                            : 48.0 kHz
Frame rate                               : 93.750 FPS (512 SPF)
Bit depth                                : 24 bits
Compression mode                         : Lossless / Lossy
Stream size                              : 2.87 GiB (30%)
Title                                    : The.Miracle.Season.2018.1080p.BluRay.x264.DTS-HD.MA.5.1-FGT
Language                                 : English
Default                                  : Yes
Forced                                   : No

Text #1
ID                                       : 3
Format                                   : UTF-8
Codec ID                                 : S_TEXT/UTF8
Codec ID/Info                            : UTF-8 Plain Text
Duration                                 : 1 h 36 min
Bit rate                                 : 63 b/s
Count of elements                        : 1428
Stream size                              : 44.9 KiB (0%)
Title                                    : English-SRT
Language                                 : English
Default                                  : Yes
Forced                                   : No

Text #2
ID                                       : 4
Format                                   : UTF-8
Codec ID                                 : S_TEXT/UTF8
Codec ID/Info                            : UTF-8 Plain Text
Duration                                 : 1 h 37 min
Bit rate                                 : 69 b/s
Count of elements                        : 1637
Stream size                              : 49.4 KiB (0%)
Title                                    : English-SDH-SRT
Language                                 : English
Default                                  : No
Forced                                   : No

Text #3
ID                                       : 5
Format                                   : PGS
Muxing mode                              : zlib
Codec ID                                 : S_HDMV/PGS
Codec ID/Info                            : Picture based subtitle format used on BDs/HD-DVDs
Duration                                 : 1 h 37 min
Bit rate                                 : 35.3 kb/s
Count of elements                        : 3274
Stream size                              : 24.6 MiB (0%)
Title                                    : English-PGS
Language                                 : English
Default                                  : No
Forced                                   : No

Text #4
ID                                       : 6
Format                                   : PGS
Muxing mode                              : zlib
Codec ID                                 : S_HDMV/PGS
Codec ID/Info                            : Picture based subtitle format used on BDs/HD-DVDs
Duration                                 : 1 h 40 min
Bit rate                                 : 935 b/s
Count of elements                        : 66
Stream size                              : 689 KiB (0%)
Title                                    : French-PGS
Language                                 : French
Default                                  : No
Forced                                   : No

Menu
00:00:00.000                             : en:00:00:00.000
00:06:39.524                             : en:00:06:39.524
00:13:53.666                             : en:00:13:53.666
00:19:23.412                             : en:00:19:23.412
00:27:54.882                             : en:00:27:54.882
00:35:27.751                             : en:00:35:27.751
00:41:09.926                             : en:00:41:09.926
00:46:54.353                             : en:00:46:54.353
00:53:18.153                             : en:00:53:18.153
01:01:07.747                             : en:01:01:07.747
01:06:39.162                             : en:01:06:39.162
01:11:42.381                             : en:01:11:42.381
01:18:56.899                             : en:01:18:56.899
01:24:35.779                             : en:01:24:35.779
01:29:50.218                             : en:01:29:50.218
01:35:23.593                             : en:01:35:23.593




                                                                                                                                                                                                        
                                                                                                                                                                                                                                                                                                                                                                                                                                                                                    
f5da0ddc12d6277489b2ce73037e241f.zip (96.11 KB, 下載次數: 0)

回復

使用道具 舉報

小黑屋|百度云資源論壇 |網站地圖

本網站所有資源來自網絡,如無意中侵犯了您的權益,請發郵件至 [email protected],立即清除相關鏈接

GMT+8, 2020-9-29 17:36 , Processed in 0.102100 second(s), 20 queries .

Powered by Discuz! X3.2

© 2001-2013 Comsenz Inc.

快速回復 返回頂部 返回列表
网络捕鱼赢现金游戏 江西快3玩法及中奖规则 急速赛车游戏 福建快3开奖结果查询走势图 股票dr是什么意思 欢乐生肖微信 天津体彩十一选五购买 江西体彩11选5彩经网 陕西十一选五五开奖结果 今天3d试机号30期 佳永配资秒出金