百度云資源論壇

 找回密碼
 立即注冊
搜索
打印 上一主題 下一主題

媽媽咪呀2/媽媽咪呀:重蹈覆轍 Mamma.Mia.Here.We.Go.Again.2018.1080p...

[復制鏈接]
跳轉到指定樓層
樓主
帖子完整標題:媽媽咪呀2/媽媽咪呀:重蹈覆轍 Mamma.Mia.Here.We.Go.Again.2018.1080p.BluRay.x264.DTS-HD.MA.7.1-FGT 10.70GB




◎譯  名 媽媽咪呀2/媽媽咪呀:重蹈覆轍/媽媽咪呀!2/媽媽咪呀!回來了(臺)/媽媽咪呀!開心再嚟(港)/媽媽咪呀2:再次出發
◎片  名 Mamma Mia! Here We Go Again
◎年  代 2018
◎產  地 英國,美國
◎類  別 喜劇 / 愛情 / 歌舞
◎語  言 英語,法語,希臘語
◎上映日期 2018-07-20(美國) / 2018-08-03(中國大陸)
◎IMDb評分  6.6/10 from 75676 users
◎片  長 114分鐘
◎導  演 歐·帕克 Ol Parker
◎編  劇 歐·帕克 Ol Parker
◎主  演 莉莉·詹姆斯 Lily James
       阿曼達·塞弗里德 Amanda Seyfried
       朱麗·沃特斯 Julie Walters
       克里斯汀·芭倫斯基 Christine Baranski
       皮爾斯·布魯斯南 Pierce Brosnan
       斯特蘭·斯卡斯加德 Stellan Skarsg?rd
       科林·費爾斯 Colin Firth
       多米尼克·庫珀 Dominic Cooper
       杰瑞米·艾文 Jeremy Irvine
       亞歷克薩·戴維斯 Alexa Davies
       杰西卡·基南·溫 Jessica Keenan Wynn
       喬什·迪倫 Josh Dylan
       休·斯金納 Hugh Skinner
       雪兒 Cher
       梅麗爾·斯特里普 Meryl Streep
       安迪·加西亞 Andy Garcia
       西莉亞·伊姆里 Celia Imrie
       歐米德·吉亞李利 Omid Djalili
       杰拉德·摩納科 Gerard Monaco
       森尚子 Naoko Mori
       伊川東吾 Togo Igawa
       阿納斯塔西婭·希爾 Anastasia Hille
       蘇珊娜·巴克萊德 Susanne Barklund
       喬納森·戈德史密斯 Jonathan Goldsmith
       凱西·克萊爾 Cassie Clare
       班尼·安德森 Benny Andersson
       戴爾·布蘭斯頓 Dale Branston
       亞歷珊德拉·福特 Alexandra Ford

◎標  簽 歌舞 | 音樂 | 美國 | 喜劇 | 愛情 | 2018 | 成長 | 經典翻拍

◎簡  介

  《媽媽咪呀2》由美國環球影業制作出品,是2008年歌舞喜劇電影《媽媽咪呀》的續篇,此次第一部的原班人馬將悉數回歸,而片中舞臺劇的改編將會以瑞典著名樂隊ABBA的歌曲為基礎。
  
  續篇將圍繞Sophie(阿曼達·塞弗里德 飾演)以及她的媽媽Donna(梅麗爾·斯特里普 飾演)年輕時的愛情故事展開---懷孕的Sophie一直自我質疑能否獨自撫養孩子長大,直到她知道了Donna孤身一人將自己養育成人的經歷,受到了極大鼓舞。年輕時的Donna將由莉莉·詹姆斯飾演,雪兒也將現身影片,飾演Sophie的外婆Ruby。

◎獲獎情況

  第32屆歐洲電影獎 ?(2019)
  觀眾選擇獎(提名)
  
  第21屆美國服裝設計工會獎 ?(2019)
  現代電影最佳服裝設計(提名) MicheleClapton
  
  第5屆豆瓣電影年度榜單 ?(2018)
  評分最高的喜劇片(提名)
Video
ID                                       : 1
Format                                   : AVC
Format/Info                              : Advanced Video Codec
Format settings                          : CABAC / 5 Ref Frames
Format settings, CABAC                   : Yes
Format settings, ReFrames                : 5 frames
Codec ID                                 : V_MPEG4/ISO/AVC
Duration                                 : 1 h 53 min
Bit rate                                 : 9 365 kb/s
Width                                    : 1 920 pixels
Height                                   : 800 pixels
Display aspect ratio                     : 2.40:1
Frame rate mode                          : Constant
Frame rate                               : 23.976 (24000/1001/189150) FPS
Color space                              : YUV
Chroma subsampling                       : 4:2:0
Bit depth                                : 8 bits
Scan type                                : Progressive
Bits/(Pixel*Frame)                       : 0.254
Stream size                              : 7.43 GiB (69%)
Title                                    : Mamma.Mia.Here.We.Go.Again.2018.1080p.BluRay.x264.DTS-HD.MA.7.1-FGT
Writing library                          : x264 core 157 r2935 545de2f
Encoding settings                        : cabac=1 / ref=5 / deblock=1:-3:-3 / analyse=0x3:0x113 / me=umh / subme=8 / psy=1 / psy_rd=1.00:0.00 / mixed_ref=1 / me_range=16 / chroma_me=1 / trellis=1 / 8x8dct=1 / cqm=0 / deadzone=21,11 / fast_pskip=1 / chroma_qp_offset=-2 / threads=24 / lookahead_threads=4 / sliced_threads=0 / nr=0 / decimate=1 / interlaced=0 / bluray_compat=0 / constrained_intra=0 / bframes=3 / b_pyramid=2 / b_adapt=1 / b_bias=0 / direct=3 / weightb=1 / open_gop=0 / weightp=2 / keyint=250 / keyint_min=23 / scenecut=40 / intra_refresh=0 / rc_lookahead=50 / rc=2pass / mbtree=1 / bitrate=9365 / ratetol=1.0 / qcomp=0.60 / qpmin=0 / qpmax=69 / qpstep=4 / cplxblur=20.0 / qblur=0.5 / ip_ratio=1.40 / aq=1:1.00
Language                                 : English
Default                                  : Yes
Forced                                   : No

Audio
ID                                       : 2
Format                                   : DTS XLL
Format/Info                              : Digital Theater Systems
Commercial name                          : DTS-HD Master Audio
Codec ID                                 : A_DTS
Duration                                 : 1 h 53 min
Bit rate mode                            : Variable
Bit rate                                 : 4 095 kb/s
Channel(s)                               : 8 channels
Channel layout                           : C L R LFE Lb Rb Lss Rss
Sampling rate                            : 48.0 kHz
Frame rate                               : 93.750 FPS (512 SPF)
Bit depth                                : 24 bits
Compression mode                         : Lossless
Stream size                              : 3.25 GiB (30%)
Title                                    : Mamma.Mia.Here.We.Go.Again.2018.1080p.BluRay.x264.DTS-HD.MA.7.1-FGT
Language                                 : English
Default                                  : Yes
Forced                                   : No

Text #1
ID                                       : 3
Format                                   : UTF-8
Codec ID                                 : S_TEXT/UTF8
Codec ID/Info                            : UTF-8 Plain Text
Duration                                 : 1 h 51 min
Bit rate                                 : 65 b/s
Count of elements                        : 1572
Stream size                              : 53.4 KiB (0%)
Title                                    : English-SRT
Language                                 : English
Default                                  : Yes
Forced                                   : No

Text #2
ID                                       : 4
Format                                   : PGS
Muxing mode                              : zlib
Codec ID                                 : S_HDMV/PGS
Codec ID/Info                            : Picture based subtitle format used on BDs/HD-DVDs
Duration                                 : 1 h 52 min
Bit rate                                 : 45.5 kb/s
Count of elements                        : 3503
Stream size                              : 36.6 MiB (0%)
Title                                    : English-PGS
Language                                 : English
Default                                  : No
Forced                                   : No

Menu
00:00:00.000                             : en:00:00:00.000
00:02:59.805                             : en:00:02:59.805
00:09:08.798                             : en:00:09:08.798
00:16:41.000                             : en:00:16:41.000
00:24:23.712                             : en:00:24:23.712
00:26:55.030                             : en:00:26:55.030
00:34:58.888                             : en:00:34:58.888
00:39:13.476                             : en:00:39:13.476
00:43:47.500                             : en:00:43:47.500
00:50:27.358                             : en:00:50:27.358
00:53:26.870                             : en:00:53:26.870
00:58:31.675                             : en:00:58:31.675
01:04:52.388                             : en:01:04:52.388
01:15:11.507                             : en:01:15:11.507
01:24:53.046                             : en:01:24:53.046
01:27:04.511                             : en:01:27:04.511
01:28:58.917                             : en:01:28:58.917
01:33:01.785                             : en:01:33:01.785
01:37:19.250                             : en:01:37:19.250
01:43:09.517                             : en:01:43:09.517




                                                                                                                                                                                                        
                                                                                                                                                                                                                                          
b7d5bf554d8a24df70a0f57811ecff19.zip (55.01 KB, 下載次數: 0)

回復

使用道具 舉報

小黑屋|百度云資源論壇 |網站地圖

本網站所有資源來自網絡,如無意中侵犯了您的權益,請發郵件至 [email protected],立即清除相關鏈接

GMT+8, 2020-9-29 18:49 , Processed in 0.157945 second(s), 20 queries .

Powered by Discuz! X3.2

© 2001-2013 Comsenz Inc.

快速回復 返回頂部 返回列表
网络捕鱼赢现金游戏 北京11选5一定牛预测 江西多乐彩 股票融资亏钱 青海高频十一选五开奖结果 广西快乐十分开奖查询 诚信网上彩票投注平台 地产基金配资比例 吉林11选五中奖规则表 新疆十一选五 11选5任8每天赚300计划