百度云資源論壇

 找回密碼
 立即注冊
搜索
打印 上一主題 下一主題

大熊貓/熊貓 Pandas.2018.DOCU.1080p.BluRay.x264.DTS-HD.MA.5.1-SWTYBLZ 6.71GB

[復制鏈接]
跳轉到指定樓層
樓主
帖子完整標題:大熊貓/熊貓 Pandas.2018.DOCU.1080p.BluRay.x264.DTS-HD.MA.5.1-SWTYBLZ 6.71GB




◎譯  名 大熊貓/熊貓/熊貓們
◎片  名 Pandas
◎年  代 2018
◎產  地 美國
◎類  別 紀錄片
◎語  言 英語
◎上映日期 2018-04-06(美國) / 2020-07-25(上海國際電影節)
◎IMDb評分  7.4/10 from 474 users
◎片  長 42分鐘
◎導  演 德魯·菲爾曼 Drew Fellman
◎編  劇 德魯·菲爾曼 Drew Fellman
◎主  演 克里斯汀·貝爾 Kristen Bell
       李冰冰 Bingbing Li

◎標  簽 紀錄片 | 大熊貓 | 熊貓 | 美國 | 自然紀錄片 | IMAX | 動物 | 2018

◎簡  介

  IMAX打造的原創紀錄片
  
  在中國成都熊貓基地,科學家們致力于讓成年熊貓繁殖,將幼崽引入野外。
  
  該片聚焦一位充滿熱情的研究人員,她開發了一項新技術,靈感來自于美國新罕布什爾州農村的黑熊計劃。一名美國生物學家跨國而來,一名來自內蒙的科學家,以及一名圈養出生、非常有好奇心的雌性熊貓幼崽“倩倩”,展開跨國合作,踏上了改變熊貓生/人生的旅程。
  
  該片以IMAX攝像機拍攝,全程捕捉倩倩的刺激新旅程,她將踏出保護棲息地,進入四川山區,發現動物的本性,即使會面臨前途未知的挑戰。
  
  大衛·道格拉斯&德魯·費爾曼(《天生狂野》《馬達加斯加:狐猴之島》)執導,費爾曼編寫劇本并制片,道格拉斯同時擔任攝影指導,Donald Kushner、Steve Ransohoff制片,Li Gen Xiong&Elie Samaha執行制片, Neal Allen擔任線上制片人。
  
  該片分級為G,將于2018年4月6日起登陸北美特定IMAX和IMAX3D影院。
Video
ID                                       : 1
Format                                   : AVC
Format/Info                              : Advanced Video Codec
Format settings                          : CABAC / 4 Ref Frames
Format settings, CABAC                   : Yes
Format settings, Reference frames        : 4 frames
Codec ID                                 : V_MPEG4/ISO/AVC
Duration                                 : 42 min 17 s
Bit rate                                 : 18.8 Mb/s
Width                                    : 1 920 pixels
Height                                   : 1 080 pixels
Display aspect ratio                     : 16:9
Frame rate mode                          : Constant
Frame rate                               : 23.976 (24000/1001/189150) FPS
Color space                              : YUV
Chroma subsampling                       : 4:2:0
Bit depth                                : 8 bits
Scan type                                : Progressive
Bits/(Pixel*Frame)                       : 0.378
Stream size                              : 5.55 GiB (83%)
Title                                    : Pandas.2018.DOCU.1080p.BluRay.x264.DTS-HD.MA.5.1-SWTYBLZ
Writing library                          : x264 core 157 r2935 545de2f
Encoding settings                        : cabac=1 / ref=4 / deblock=1:-1:-1 / analyse=0x3:0x133 / me=umh / subme=10 / psy=1 / psy_rd=1.00:0.15 / mixed_ref=1 / me_range=48 / chroma_me=1 / trellis=2 / 8x8dct=1 / cqm=0 / deadzone=21,11 / fast_pskip=1 / chroma_qp_offset=-3 / threads=34 / lookahead_threads=5 / sliced_threads=0 / nr=0 / decimate=0 / interlaced=0 / bluray_compat=0 / constrained_intra=0 / bframes=8 / b_pyramid=2 / b_adapt=2 / b_bias=0 / direct=3 / weightb=1 / open_gop=0 / weightp=2 / keyint=250 / keyint_min=23 / scenecut=40 / intra_refresh=0 / rc_lookahead=60 / rc=crf / mbtree=1 / crf=17.0 / qcomp=0.60 / qpmin=0 / qpmax=69 / qpstep=4 / ip_ratio=1.40 / aq=1:1.00
Default                                  : Yes
Forced                                   : No

Audio
ID                                       : 2
ID in the original source medium         : 4352 (0x1100)
Format                                   : DTS XLL
Format/Info                              : Digital Theater Systems
Commercial name                          : DTS-HD Master Audio
Codec ID                                 : A_DTS
Duration                                 : 42 min 17 s
Bit rate mode                            : Variable
Bit rate                                 : 3 881 kb/s
Channel(s)                               : 6 channels
Channel layout                           : C L R Ls Rs LFE
Sampling rate                            : 48.0 kHz
Frame rate                               : 93.750 FPS (512 SPF)
Bit depth                                : 24 bits
Compression mode                         : Lossless
Stream size                              : 1.15 GiB (17%)
Title                                    : Pandas.2018.DOCU.1080p.BluRay.x264.DTS-HD.MA.5.1-SWTYBLZ
Language                                 : English
Default                                  : Yes
Forced                                   : No
Original source medium                   : Blu-ray

Text #1
ID                                       : 3
Format                                   : UTF-8
Codec ID                                 : S_TEXT/UTF8
Codec ID/Info                            : UTF-8 Plain Text
Duration                                 : 38 min 21 s
Bit rate                                 : 42 b/s
Count of elements                        : 337
Stream size                              : 11.8 KiB (0%)
Title                                    : English-SRT
Language                                 : English
Default                                  : Yes
Forced                                   : No

Text #2
ID                                       : 4
ID in the original source medium         : 4768 (0x12A0)
Format                                   : PGS
Muxing mode                              : zlib
Codec ID                                 : S_HDMV/PGS
Codec ID/Info                            : Picture based subtitle format used on BDs/HD-DVDs
Duration                                 : 39 min 27 s
Bit rate                                 : 28.3 kb/s
Count of elements                        : 736
Stream size                              : 7.98 MiB (0%)
Title                                    : English-PGS
Language                                 : English
Default                                  : No
Forced                                   : No
Original source medium                   : Blu-ray

Text #3
ID                                       : 5
ID in the original source medium         : 4769 (0x12A1)
Format                                   : PGS
Muxing mode                              : zlib
Codec ID                                 : S_HDMV/PGS
Codec ID/Info                            : Picture based subtitle format used on BDs/HD-DVDs
Duration                                 : 40 min 22 s
Bit rate                                 : 25.8 kb/s
Count of elements                        : 652
Stream size                              : 7.46 MiB (0%)
Title                                    : French-PGS
Language                                 : French
Default                                  : No
Forced                                   : No
Original source medium                   : Blu-ray

Text #4
ID                                       : 6
ID in the original source medium         : 4770 (0x12A2)
Format                                   : PGS
Muxing mode                              : zlib
Codec ID                                 : S_HDMV/PGS
Codec ID/Info                            : Picture based subtitle format used on BDs/HD-DVDs
Duration                                 : 40 min 22 s
Bit rate                                 : 25.2 kb/s
Count of elements                        : 652
Stream size                              : 7.29 MiB (0%)
Title                                    : Spanish-PGS
Language                                 : Spanish
Default                                  : No
Forced                                   : No
Original source medium                   : Blu-ray

Menu
00:00:00.000                             : en:Chapter 01
00:09:56.846                             : en:Chapter 02
00:20:53.835                             : en:Chapter 03
00:30:53.268                             : en:Chapter 04
00:39:53.974                             : en:Chapter 05




                                                                                                                                                                                                        
                                                                                                                                                                                                                                          
094bcc721a3b47aa8f87d51cec266d70.zip (35.02 KB, 下載次數: 0)

回復

使用道具 舉報

小黑屋|百度云資源論壇 |網站地圖

本網站所有資源來自網絡,如無意中侵犯了您的權益,請發郵件至 [email protected],立即清除相關鏈接

GMT+8, 2020-9-29 17:25 , Processed in 0.107955 second(s), 20 queries .

Powered by Discuz! X3.2

© 2001-2013 Comsenz Inc.

快速回復 返回頂部 返回列表
网络捕鱼赢现金游戏 福建快三2月推荐 河北体彩十一选五遗漏一定牛 江西多乐彩开奖公告 北京赛车登录平台 下载吉林十一选五助手 11选5每天赢钱技巧 交易规则 股票的k线图 浙江风采网体彩七位数 北京赛车pk10软件