百度云資源論壇

 找回密碼
 立即注冊
搜索
打印 上一主題 下一主題

火口的兩人 It.Feels.So.Good.2019.JAPANESE.1080p.BluRay.x264.DTS-EDPH 13....

[復制鏈接]
跳轉到指定樓層
樓主
帖子完整標題:火口的兩人 It.Feels.So.Good.2019.JAPANESE.1080p.BluRay.x264.DTS-EDPH 13.46GB




◎譯  名 火口的兩人/It Feels So Good/火口的二人(臺)/火口秘情/火山口的兩個人
◎片  名 火口のふたり
◎年  代 2019
◎產  地 日本
◎類  別 愛情 / 情色
◎語  言 日語
◎上映日期 2019-08-23(日本)
◎IMDb評分  6.6/10 from 257 users
◎片  長 115分鐘
◎導  演 荒井晴彥 Haruhiko Arai
◎編  劇 荒井晴彥 Haruhiko Arai / 白石一文 Kazufumi Shiraishi
◎主  演 柄本佑 Tasuku Emoto
       瀧內公美 Kumi Takiuchi
       柄本明 Akira Emoto

◎標  簽 情色 | 日本 | 愛情 | 日本電影 | 2019 | 荒井晴彥 | 劇情 | 柄本佑

◎簡  介

  「當巨大的外在世界崩壞時,人們只能在自己的小世界中尋求生存之道。直子與賢治將自我封閉在兩人專屬的小世界里,伴隨著男女之間自然而然的肉體關系,仿佛被拋入了無法說謊的宇宙之中,當中有著快感,也袒露出人們原本擁有的特質。似乎唯有潛入這個小小宇宙之中,人們才能發揮真正的堅強」─原著作家白石一文
  
  十天后即將迎接婚禮的直子,與重回故鄉秋田的往日戀人賢治,久別重逢。直子從為了迎接新生活而整理出來的物品當中,翻出了一本相簿,相簿里是她與賢治一絲不掛地交纏著的黑白照片;往昔順從著欲望本能共度的青春時光就此蘇醒。
  
  「只要今晚就好,讓我們回到過去好嗎?」在直子未婚夫歸來的五天內,在刻畫于肉體的愉悅記憶及糾葛的盡頭,兩人將看到什么風景?結合了震災背景,包覆在漠然日常之下的濃密性愛,仿佛即將噴發的火山,迸裂出扭曲卻純潔、毅然而絕美的生命巖漿。
Video
ID                                       : 1
Format                                   : AVC
Format/Info                              : Advanced Video Codec
Format settings                          : CABAC / 4 Ref Frames
Format settings, CABAC                   : Yes
Format settings, Reference frames        : 4 frames
Codec ID                                 : V_MPEG4/ISO/AVC
Duration                                 : 1 h 55 min
Bit rate                                 : 15.1 Mb/s
Width                                    : 1 920 pixels
Height                                   : 1 038 pixels
Display aspect ratio                     : 1.85:1
Frame rate mode                          : Constant
Frame rate                               : 23.976 (24000/1001/189150) FPS
Color space                              : YUV
Chroma subsampling                       : 4:2:0
Bit depth                                : 8 bits
Scan type                                : Progressive
Bits/(Pixel*Frame)                       : 0.316
Stream size                              : 12.2 GiB (91%)
Writing library                          : x264 core 160 r3009 4c9b076
Encoding settings                        : cabac=1 / ref=4 / deblock=1:-3:-3 / analyse=0x3:0x133 / me=umh / subme=11 / psy=1 / psy_rd=1.00:0.00 / mixed_ref=1 / me_range=32 / chroma_me=1 / trellis=2 / 8x8dct=1 / cqm=0 / deadzone=21,11 / fast_pskip=0 / chroma_qp_offset=-2 / threads=9 / lookahead_threads=2 / sliced_threads=0 / nr=0 / decimate=0 / interlaced=0 / bluray_compat=0 / constrained_intra=0 / bframes=16 / b_pyramid=2 / b_adapt=2 / b_bias=0 / direct=3 / weightb=1 / open_gop=0 / weightp=2 / keyint=250 / keyint_min=23 / scenecut=40 / intra_refresh=0 / rc_lookahead=250 / rc=crf / mbtree=0 / crf=15.7 / qcomp=0.60 / qpmin=0 / qpmax=69 / qpstep=4 / vbv_maxrate=62500 / vbv_bufsize=78125 / crf_max=0.0 / nal_hrd=none / filler=0 / ip_ratio=1.30 / pb_ratio=1.20 / aq=3:0.80
Default                                  : Yes
Forced                                   : No
Color range                              : Limited
Color primaries                          : BT.709
Matrix coefficients                      : BT.709

Audio
ID                                       : 2
Format                                   : DTS
Format/Info                              : Digital Theater Systems
Codec ID                                 : A_DTS
Duration                                 : 1 h 55 min
Bit rate mode                            : Constant
Bit rate                                 : 1 509 kb/s
Channel(s)                               : 6 channels
Channel layout                           : C L R Ls Rs LFE
Sampling rate                            : 48.0 kHz
Frame rate                               : 93.750 FPS (512 SPF)
Bit depth                                : 24 bits
Compression mode                         : Lossy
Stream size                              : 1.22 GiB (9%)
Language                                 : Japanese
Default                                  : Yes
Forced                                   : No

Text #1
ID                                       : 3
Format                                   : UTF-8
Codec ID                                 : S_TEXT/UTF8
Codec ID/Info                            : UTF-8 Plain Text
Duration                                 : 1 h 54 min
Bit rate                                 : 38 b/s
Count of elements                        : 1142
Stream size                              : 31.9 KiB (0%)
Language                                 : English
Default                                  : Yes
Forced                                   : No

Text #2
ID                                       : 4
Format                                   : PGS
Muxing mode                              : zlib
Codec ID                                 : S_HDMV/PGS
Codec ID/Info                            : Picture based subtitle format used on BDs/HD-DVDs
Duration                                 : 1 h 54 min
Bit rate                                 : 18.5 kb/s
Count of elements                        : 1993
Stream size                              : 15.1 MiB (0%)
Title                                    : Simplified Chinese
Language                                 : Chinese
Default                                  : No
Forced                                   : No

Text #3
ID                                       : 5
Format                                   : PGS
Muxing mode                              : zlib
Codec ID                                 : S_HDMV/PGS
Codec ID/Info                            : Picture based subtitle format used on BDs/HD-DVDs
Duration                                 : 1 h 54 min
Bit rate                                 : 18.7 kb/s
Count of elements                        : 1993
Stream size                              : 15.3 MiB (0%)
Title                                    : Traditional Chinese
Language                                 : Chinese
Default                                  : No
Forced                                   : No

Menu
00:00:00.000                             : :Chapter 01
00:15:25.341                             : :Chapter 02
00:26:55.488                             : :Chapter 03
00:41:37.953                             : :Chapter 04
00:53:09.519                             : :Chapter 05
01:12:21.920                             : :Chapter 06
01:32:00.181                             : :Chapter 07
01:48:56.655                             : :Chapter 08




                                                                                                                                                                                                        
                                                                                                                                                                                                                                                                                                                                                                                                                                                                                                                                                                                                                                                                                                                              
03b7dae836c6843e9bb0cf49d0d3c986.zip (68.8 KB, 下載次數: 0)

回復

使用道具 舉報

小黑屋|百度云資源論壇 |網站地圖

本網站所有資源來自網絡,如無意中侵犯了您的權益,請發郵件至 [email protected],立即清除相關鏈接

GMT+8, 2020-9-29 18:23 , Processed in 0.102586 second(s), 20 queries .

Powered by Discuz! X3.2

© 2001-2013 Comsenz Inc.

快速回復 返回頂部 返回列表
网络捕鱼赢现金游戏 在线配资炒股多少钱 今晚澳门彩报1 基金配资多少倍 上海十一选五走势图表 上海十一选五开奖结果查询 福建11选5百度 股票分析软件破解版 河内五分彩app平台 体彩飞鱼口诀 查找快乐八开奖结果