百度云資源論壇

 找回密碼
 立即注冊
搜索
打印 上一主題 下一主題

自殺解決方案 Daddys.Girl.2018.1080p.BluRay.x264-JustWatch 4.83GB

[復制鏈接]
跳轉到指定樓層
樓主
帖子完整標題:自殺解決方案 Daddys.Girl.2018.1080p.BluRay.x264-JustWatch 4.83GB




◎譯  名 自殺解決方案/Suicide Solution
◎片  名 Daddy's Girl
◎年  代 2018
◎產  地 美國
◎類  別 驚悚 / 恐怖 / 犯罪
◎語  言 英語
◎上映日期 2018-10-04(Raindance Film Festival)
◎IMDb評分  4.8/10 from 113 users
◎片  長 81分鐘
◎導  演 朱利安·理查德 Julian Richards
◎主  演 杰瑪·達蘭德 Jemma Dallender
       馬克·阿諾德 Mark Arnold

◎標  簽 驚悚 | 懸疑 | 恐怖

◎簡  介

  A young woman held captive by her stepfather becomes the focus of a female vigilante.
Video
ID                                       : 1
Format                                   : AVC
Format/Info                              : Advanced Video Codec
Format settings                          : CABAC / 5 Ref Frames
Format settings, CABAC                   : Yes
Format settings, Reference frames        : 5 frames
Codec ID                                 : V_MPEG4/ISO/AVC
Duration                                 : 1 h 20 min
Bit rate                                 : 6 020 kb/s
Width                                    : 1 920 pixels
Height                                   : 808 pixels
Display aspect ratio                     : 2.40:1
Frame rate mode                          : Constant
Frame rate                               : 24.000 FPS
Color space                              : YUV
Chroma subsampling                       : 4:2:0
Bit depth                                : 8 bits
Scan type                                : Progressive
Bits/(Pixel*Frame)                       : 0.162
Stream size                              : 3.40 GiB (70%)
Writing library                          : x264 core 161 r3018 db0d417
Encoding settings                        : cabac=1 / ref=5 / deblock=1:-3:-3 / analyse=0x3:0x133 / me=umh / subme=9 / psy=1 / psy_rd=1.00:0.00 / mixed_ref=1 / me_range=16 / chroma_me=1 / trellis=2 / 8x8dct=1 / cqm=0 / deadzone=21,11 / fast_pskip=0 / chroma_qp_offset=-2 / threads=25 / lookahead_threads=2 / sliced_threads=0 / nr=0 / decimate=1 / interlaced=0 / bluray_compat=0 / constrained_intra=0 / bframes=3 / b_pyramid=2 / b_adapt=2 / b_bias=0 / direct=3 / weightb=1 / open_gop=0 / weightp=2 / keyint=250 / keyint_min=24 / scenecut=40 / intra_refresh=0 / rc_lookahead=60 / rc=crf / mbtree=1 / crf=17.0 / qcomp=0.60 / qpmin=0 / qpmax=69 / qpstep=4 / ip_ratio=1.40 / aq=1:1.00
Language                                 : English
Default                                  : Yes
Forced                                   : No

Audio
ID                                       : 2
Format                                   : DTS XLL
Format/Info                              : Digital Theater Systems
Commercial name                          : DTS-HD Master Audio
Codec ID                                 : A_DTS
Duration                                 : 1 h 20 min
Bit rate mode                            : Variable
Bit rate                                 : 2 517 kb/s
Channel(s)                               : 6 channels
Channel layout                           : C L R Ls Rs LFE
Sampling rate                            : 48.0 kHz
Frame rate                               : 93.750 FPS (512 SPF)
Bit depth                                : 24 bits
Compression mode                         : Lossless
Stream size                              : 1.42 GiB (29%)
Language                                 : English
Default                                  : Yes
Forced                                   : No

Text
ID                                       : 3
Format                                   : PGS
Muxing mode                              : zlib
Codec ID                                 : S_HDMV/PGS
Codec ID/Info                            : Picture based subtitle format used on BDs/HD-DVDs
Duration                                 : 1 h 14 min
Bit rate                                 : 20.7 kb/s
Count of elements                        : 1188
Stream size                              : 11.0 MiB (0%)
Language                                 : German
Default                                  : No
Forced                                   : No

Menu
00:00:00.000                             : :Kapitel 01
00:06:21.833                             : :Kapitel 02
00:12:38.208                             : :Kapitel 03
00:19:38.250                             : :Kapitel 04
00:25:40.333                             : :Kapitel 05
00:29:58.167                             : :Kapitel 06
00:36:54.958                             : :Kapitel 07
00:43:08.917                             : :Kapitel 08
00:48:51.875                             : :Kapitel 09
00:54:41.875                             : :Kapitel 10
01:00:40.708                             : :Kapitel 11
01:06:59.583                             : :Kapitel 12
01:17:03.542                             : :Kapitel 13




                                                                                                                                                                                                        


d0f00d1d3a27866600e52868efecf5ca.zip (49.02 KB, 下載次數: 0)

回復

使用道具 舉報

小黑屋|百度云資源論壇 |網站地圖

本網站所有資源來自網絡,如無意中侵犯了您的權益,請發郵件至 [email protected],立即清除相關鏈接

GMT+8, 2020-9-29 19:56 , Processed in 0.102611 second(s), 20 queries .

Powered by Discuz! X3.2

© 2001-2013 Comsenz Inc.

快速回復 返回頂部 返回列表
网络捕鱼赢现金游戏 今天股票推荐 甘肃11选5中奖奖金 云南十一选五专家预测推荐 福建体彩11选5走势图 大学生股票分析范文 山西快乐十分前三组跨度 好公司好股票推荐 天津快乐10分开奖结果 时时彩最快开奖软件 福建31选7规则