百度云資源論壇

 找回密碼
 立即注冊
搜索
打印 上一主題 下一主題

[4K-Remux] 終結者:黑暗命運.2019.UHD.BluRay.REMUX.2160p.HEVC.TrueHD.Atmos.7.1.-Fra...

[復制鏈接]
跳轉到指定樓層
樓主

◎譯  名 終結者:黑暗命運 / Terminator 6 / 未來戰士:黑暗命運(港) / 終結者2019 / 終結者6 / 終結者6:黑暗命運 / 終結者6:黑暗宿命 / 魔鬼終結者:黑暗宿命(臺)
◎片  名 Terminator: Dark Fate
◎年  代 2019
◎產  地 美國 / 中國大陸
◎類  別 動作 / 科幻 / 冒險
◎語  言 英語
◎上映日期 2019-10-23(法國) / 2019-11-01(美國/中國大陸)
◎IMDb評分  6.4/10 from 58390 users
bt電影天堂 www.btddy.com
◎片  長 128分鐘
◎導  演 蒂姆·米勒 Tim Miller
◎編  劇 詹姆斯·卡梅隆 James Cameron / 查爾斯·H·伊格里 Charles H. Eglee / 喬什·弗萊德曼 Josh Friedman / 大衛·S·高耶 David S. Goyer / 賈斯汀·羅德斯 Justin Rhodes / 比利·雷 Billy Ray / 蓋爾·安妮·赫德 Gale Anne Hurd
◎主  演 麥肯茲·戴維斯 Mackenzie Davis
       娜塔利婭·雷耶斯 Natalia Reyes
       琳達·漢密爾頓 Linda Hamilton
       阿諾·施瓦辛格 Arnold Schwarzenegger
       加布里埃爾·魯納 Gabriel Luna
       迪耶戈·博內塔 Diego Boneta
       恩里克·阿爾切 Enrique Arce
       特里斯坦·烏羅阿 Tristán Ulloa
       艾麗西婭·博拉切羅 Alicia Borrachero
       布雷特·阿扎爾 Brett Azar
       史蒂芬·克里 Steven Cree
       羅謝爾·尼爾 Rochelle Neil
       弗雷澤·杰姆斯 Fraser James
       克勞迪婭·特魯希略 Claudia Trujillo
       比約恩·弗賴貝格 Bj?rn Freiberg
       約翰·蓋蒂爾 John Gettier
       彼得·奧蒙德 Peter Ormond
       Lorna Brown
       Peter Schueller


◎標  簽 科幻 | 動作 | 美國 | 機器人 | 2019 | 情懷 | 冒險 | 劇情

◎簡  介  

  《終結者2:審判日》發生的27年后,由于未來天網派來T-800成功殺死年幼的約翰,以致令未來產生變化,一個全新進化的液態金屬終結者從未來派出,目的是追殺持有關鍵訊息的丹妮·拉莫斯、半生化人葛蕾絲和她的朋友。這使莎拉·康納以及成功殺死約翰的T800終結者前來幫助她們一行人,以共同為了人類的未來而戰。

◎獲獎情況  

  第6屆豆瓣電影年度榜單(2019)
  評分最高的科幻/動作片(提名)



General
Unique ID                                : 17330834567624711146464215235424348582 (0xD09CC1D8626FEBEACCE96859C32E9A6)
Complete name                            : Terminator.Dark.Fate.2019.UHD.BluRay.2160p.TrueHD.Atmos.7.1.HEVC.REMUX-FraMeSToR.mkv
Format                                   : Matroska
Format version                           : Version 4
File size                                : 48.4 GiB
Duration                                 : 2 h 8 min
Overall bit rate mode                    : Variable
Overall bit rate                         : 54.1 Mb/s
Movie name                               : Terminator: Dark Fate 4K
Encoded date                             : UTC 2020-01-17 04:06:50
Writing application                      : mkvmerge v42.0.0 ('Overtime') 64-bit
Writing library                          : libebml v1.3.10 + libmatroska v1.5.2

Video
ID                                       : 1
Format                                   : HEVC
Format/Info                              : High Efficiency Video Coding
HDR format                               : SMPTE ST 2086, HDR10 compatible
Codec ID                                 : V_MPEGH/ISO/HEVC
Duration                                 : 2 h 8 min
Bit rate                                 : 48.7 Mb/s
Width                                    : 3 840 pixels
Height                                   : 2 160 pixels
Display aspect ratio                     : 16:9
Frame rate mode                          : Constant
Frame rate                               : 23.976 (24000/1001) FPS
Color space                              : YUV
Chroma subsampling                       : 4:2:0 (Type 2)
Bit depth                                : 10 bits
Bits/(Pixel*Frame)                       : 0.245
Stream size                              : 43.6 GiB (90%)
Default                                  : Yes
Forced                                   : No
Color range                              : Limited
Color primaries                          : BT.2020
Transfer characteristics                 : PQ
Matrix coefficients                      : BT.2020 non-constant
Mastering display color primaries        : Display P3
Mastering display luminance              : min: 0.0001 cd/m2, max: 1000 cd/m2
Maximum Content Light Level              : 1000 cd/m2
Maximum Frame-Average Light Level        : 446 cd/m2

Audio #1
ID                                       : 2
Format                                   : MLP FBA 16-ch
Format/Info                              : Meridian Lossless Packing FBA with 16-channel presentation
Commercial name                          : Dolby TrueHD with Dolby Atmos
Codec ID                                 : A_TRUEHD
Duration                                 : 2 h 8 min
Bit rate mode                            : Variable
Bit rate                                 : 4 634 kb/s
Maximum bit rate                         : 8 247 kb/s
Channel(s)                               : 8 channels
Channel layout                           : L R C LFE Ls Rs Lb Rb
Sampling rate                            : 48.0 kHz
Frame rate                               : 1 200.000 FPS (40 SPF)
Compression mode                         : Lossless
Stream size                              : 4.15 GiB (9%)
Title                                    : TrueHD Atmos 7.1
Language                                 : English
Default                                  : Yes
Forced                                   : No
Number of dynamic objects                : 11
Bed channel count                        : 1 channel
Bed channel configuration                : LFE

Audio #2
ID                                       : 3
Format                                   : AC-3
Format/Info                              : Audio Coding 3
Commercial name                          : Dolby Digital
Codec ID                                 : A_AC3
Duration                                 : 2 h 8 min
Bit rate mode                            : Constant
Bit rate                                 : 640 kb/s
Channel(s)                               : 6 channels
Channel layout                           : L R C LFE Ls Rs
Sampling rate                            : 48.0 kHz
Frame rate                               : 31.250 FPS (1536 SPF)
Compression mode                         : Lossy
Stream size                              : 586 MiB (1%)
Title                                    : AC3 5.1-EX
Language                                 : English
Service kind                             : Complete Main
Default                                  : No
Forced                                   : No

Text #1
ID                                       : 4
Format                                   : PGS
Codec ID                                 : S_HDMV/PGS
Codec ID/Info                            : Picture based subtitle format used on BDs/HD-DVDs
Duration                                 : 1 h 57 min
Bit rate                                 : 20.1 kb/s
Count of elements                        : 2100
Stream size                              : 16.9 MiB (0%)
Title                                    : English
Language                                 : English
Default                                  : No
Forced                                   : No

Text #2
ID                                       : 5
Format                                   : PGS
Codec ID                                 : S_HDMV/PGS
Codec ID/Info                            : Picture based subtitle format used on BDs/HD-DVDs
Duration                                 : 1 h 57 min
Bit rate                                 : 27.3 kb/s
Count of elements                        : 2778
Stream size                              : 22.9 MiB (0%)
Title                                    : English (SDH)
Language                                 : English
Default                                  : No
Forced                                   : No

Text #3
ID                                       : 6
Format                                   : PGS
Codec ID                                 : S_HDMV/PGS
Codec ID/Info                            : Picture based subtitle format used on BDs/HD-DVDs
Duration                                 : 2 h 7 min
Bit rate                                 : 20.9 kb/s
Count of elements                        : 2468
Stream size                              : 19.2 MiB (0%)
Title                                    : French
Language                                 : French
Default                                  : No
Forced                                   : No

Text #4
ID                                       : 7
Format                                   : PGS
Codec ID                                 : S_HDMV/PGS
Codec ID/Info                            : Picture based subtitle format used on BDs/HD-DVDs
Duration                                 : 2 h 7 min
Bit rate                                 : 18.3 kb/s
Count of elements                        : 2150
Stream size                              : 16.7 MiB (0%)
Title                                    : Spanish (Latin American)
Language                                 : Spanish
Default                                  : No
Forced                                   : No

Menu
00:00:00.000                             : en:Chapter 01
00:04:19.843                             : en:Chapter 02
00:07:48.927                             : en:Chapter 03
00:11:47.916                             : en:Chapter 04
00:16:56.349                             : en:Chapter 05
00:22:10.663                             : en:Chapter 06
00:29:00.614                             : en:Chapter 07
00:33:25.754                             : en:Chapter 08
00:41:35.493                             : en:Chapter 09
00:47:02.695                             : en:Chapter 10
00:53:08.936                             : en:Chapter 11
00:57:56.807                             : en:Chapter 12
01:05:02.690                             : en:Chapter 13
01:13:07.967                             : en:Chapter 14
01:20:45.591                             : en:Chapter 15
01:27:29.744                             : en:Chapter 16
01:32:48.688                             : en:Chapter 17
01:41:45.850                             : en:Chapter 18
01:49:35.319                             : en:Chapter 19
01:57:58.613                             : en:Chapter 20







                                                                                                                                                                                                        
                                                                                                                                                                                                                                                                                                                                                                                                                                                                                                                                                                                                                                                                                                                                                                                                                                                      
15ee6ad8755f438f4ed7564630bc088b.torrent (125.14 KB, 下載次數: 0)

回復

使用道具 舉報

小黑屋|百度云資源論壇 |網站地圖

本網站所有資源來自網絡,如無意中侵犯了您的權益,請發郵件至 [email protected],立即清除相關鏈接

GMT+8, 2020-7-2 16:04 , Processed in 0.098559 second(s), 20 queries .

Powered by Discuz! X3.2

© 2001-2013 Comsenz Inc.

快速回復 返回頂部 返回列表
网络捕鱼赢现金游戏 新疆11选5黄金码 有1万元闲钱怎么理财 海南4+1怎么玩法 极速赛车计划群 手机股票配资 辽宁35选七的开奖结果 正版湖北十一选五 湖南快乐十分交流 福利排列7开奖结果 湖北11选5一定牛遗漏数据