百度云資源論壇

 找回密碼
 立即注冊
搜索
打印 上一主題 下一主題

[BD-4K] 奇幻森林/與森林共舞 The.Jungle.Book.2016.2160p.BluRay.x265.10bit.SDR...

[復制鏈接]
跳轉到指定樓層
樓主
帖子完整標題:奇幻森林/與森林共舞 The.Jungle.Book.2016.2160p.BluRay.x265.10bit.SDR.DTS-HD.MA.TrueHD.7.1.Atmos-SWTYBLZ 33.52GB




◎譯  名 奇幻森林 / 與森林共舞(臺) / 叢林之書 / 森林王子
◎片  名 The Jungle Book
◎年  代 2016
◎產  地 美國
◎類  別 劇情 / 奇幻 / 冒險
◎語  言 英語
◎上映日期 2016-04-15(美國/中國大陸)
◎IMDb評分  7.4/10 from 247831 users
◎bt電影天堂 www.btddy.com
◎片  長 106分鐘
◎導  演 喬恩·費儒 Jon Favreau
◎編  劇 賈斯丁·馬科斯 Justin Marks / 拉迪亞德·吉普林 Rudyard Kipling
◎主  演 尼爾·塞西 Neel Sethi
       比爾·默瑞 Bill Murray
       本·金斯利 Ben Kingsley
       伊德里斯·艾爾巴 Idris Elba
       露皮塔·尼永奧 Lupita Nyong'o
       斯嘉麗·約翰遜 Scarlett Johansson
       吉安卡羅·埃斯波西托 Giancarlo Esposito
       克里斯托弗·沃肯 Christopher Walken
       恩杰伊·安東尼 Emjay Anthony
       蓋瑞·山德林 Garry Shandling
       莎拉·阿林頓 Sara Arrington
       瑞提什·拉詹 Ritesh Rajan


◎標  簽 奇幻 | 迪士尼 | 美國 | 動畫 | 冒險 | 動物 | Disney | 2016

◎簡  介  

  茂密的原始森林中,生活著人類小孩毛克利(尼爾·塞西 Neel Sethi 飾)。因某種原因他很小就成為了孤兒,黑豹巴希拉(本·金斯利 Ben Kingsley 配音)最先找到了他,并將毛克利托付給狼族的首領阿克拉。從此以后,毛克利以狼的身份在森林里成長起來,和他的兄弟姐妹們學習捕獵和求生技巧。然而并非所有動物都接受毛克利的存在,特別是曾被人類傷害的老虎謝利·可汗(伊德里斯·艾爾巴 Idris Elba 配音),更將男孩視為眼中釘肉中刺。謝利·可汗向狼族發出威脅,眾狼們不得不為族群的命運做出考量。毛克利不希望“家人”為難,他選擇離開狼群,而唯一陪伴他的巴希拉則希望帶著男孩回歸人類世界。
  即便如此,謝利·可汗也絕不肯善罷甘休,他對男孩展開了無休止的追殺……

◎獲獎情況  

  第89屆奧斯卡金像獎(2017)
  最佳視覺效果 Andrew R. Jones / 丹·賴蒙 / 羅伯特·萊加托 / 亞當·瓦德茲

  第70屆英國電影學院獎(2017)
  電影獎 最佳特殊視覺效果 Andrew R. Jones / 丹·賴蒙 / 羅伯特·萊加托 / 亞當·瓦德茲

  第44屆動畫安妮獎(2017)
  最佳真人電影動畫角色

  第67屆美國剪輯工會獎(2017)
  音樂/喜劇片最佳剪輯(提名)

  第15屆美國視覺效果協會獎(2017)
  最佳特效電影視覺效果
  最佳真人電影CG動畫角色
  最佳電影虛擬攝影
  最佳真人電影模擬動畫效果
  最佳電影視覺效果合成

  第22屆美國評論家選擇電影獎(2017)
  最佳視覺效果

  第21屆金衛星獎(2017)
  電影部門 最佳動畫片(提名)
  電影部門 最佳改編劇本(提名) 賈斯丁·馬科斯
  電影部門 最佳原創配樂(提名) 約翰·戴布尼
  電影部門 最佳攝影 比爾·波普
  電影部門 最佳視覺效果 Andrew R. Jones / 丹·賴蒙 / 羅伯特·萊加托 / 亞當·瓦德茲
  電影部門 最佳音效(提名) Frank E. Eulner / Lora Hirschberg / 克里斯托弗·博伊斯 / 朗·賈金斯
  電影部門 最佳美術指導(提名) 克里斯托弗·格拉斯

  第20屆好萊塢電影獎(2016)
  年度音效
  最佳賣座片

  第3屆豆瓣電影年度榜單(2016)
  4月最受關注電影
Video
ID                                       : 1
Format                                   : HEVC
Format/Info                              : High Efficiency Video Coding
Codec ID                                 : V_MPEGH/ISO/HEVC
Duration                                 : 1 h 45 min
Bit rate                                 : 35.0 Mb/s
Width                                    : 3 840 pixels
Height                                   : 2 076 pixels
Display aspect ratio                     : 1.85:1
Frame rate mode                          : Constant
Frame rate                               : 23.976 (24000/1001) FPS
Color space                              : YUV
Chroma subsampling                       : 4:2:0
Bit depth                                : 10 bits
Bits/(Pixel*Frame)                       : 0.183
Stream size                              : 25.9 GiB (78%)
Title                                    : The.Jungle.Book.2016.2160p.BluRay.x265.10bit.SDR.DTS-HD.MA.TrueHD.7.1.Atmos-SWTYBLZ
Writing library                          : x265 3.0ed72af837053:[Windows][GCC 8.2.0][64 bit] 10bit
Encoding settings                        : cpuid=1111039 / frame-threads=16 / numa-pools=40 / wpp / no-pmode / no-pme / no-psnr / no-ssim / log-level=2 / input-csp=1 / input-res=3840x2076 / interlace=0 / total-frames=152351 / level-idc=51 / high-tier=1 / uhd-bd=0 / ref=3 / no-allow-non-conformance / repeat-headers / annexb / aud / hrd / info / hash=0 / no-temporal-layers / no-open-gop / min-keyint=1 / keyint=24 / gop-lookahead=0 / bframes=4 / b-adapt=2 / b-pyramid / bframe-bias=0 / rc-lookahead=25 / lookahead-slices=4 / scenecut=40 / radl=0 / no-splice / no-intra-refresh / ctu=64 / min-cu-size=8 / no-rect / no-amp / max-tu-size=32 / tu-inter-depth=1 / tu-intra-depth=1 / limit-tu=0 / rdoq-level=0 / dynamic-rd=0.00 / no-ssim-rd / signhide / no-tskip / nr-intra=0 / nr-inter=0 / no-constrained-intra / strong-intra-smoothing / max-merge=2 / limit-refs=3 / no-limit-modes / me=1 / subme=2 / merange=57 / temporal-mvp / weightp / no-weightb / no-analyze-src-pics / deblock=0:0 / no-sao / no-sao-non-deblock / rd=3 / no-early-skip / rskip / no-fast-intra / no-tskip-fast / no-cu-lossless / no-b-intra / no-splitrd-skip / rdpenalty=0 / psy-rd=2.00 / psy-rdoq=0.00 / no-rd-refine / no-lossless / cbqpoffs=0 / crqpoffs=0 / rc=crf / crf=16.0 / qcomp=0.60 / qpstep=4 / stats-write=0 / stats-read=0 / vbv-maxrate=160000 / vbv-bufsize=160000 / vbv-init=0.9 / crf-max=0.0 / crf-min=0.0 / ipratio=1.40 / pbratio=1.30 / aq-mode=1 / aq-strength=1.00 / cutree / zone-count=0 / no-strict-cbr / qg-size=32 / no-rc-grain / qpmax=69 / qpmin=0 / no-const-vbv / sar=1 / overscan=0 / videoformat=5 / range=0 / colorprim=2 / transfer=2 / colormatrix=2 / chromaloc=0 / display-window=0 / max-cll=0,0 / min-luma=0 / max-luma=1023 / log2-max-poc-lsb=8 / vui-timing-info / vui-hrd-info / slices=1 / opt-qp-pps / opt-ref-list-length-pps / no-multi-pass-opt-rps / scenecut-bias=0.05 / no-opt-cu-delta-qp / no-aq-motion / no-hdr / no-hdr-opt / no-dhdr10-opt / no-idr-recovery-sei / analysis-reuse-level=5 / scale-factor=0 / refine-intra=0 / refine-inter=0 / refine-mv=0 / refine-ctu-distortion=0 / no-limit-sao / ctu-info=0 / no-lowpass-dct / refine-analysis-type=0 / copy-pic=1 / max-ausize-factor=1.0 / no-dynamic-refine / no-single-sei / no-hevc-aq / qp-adaptation-range=1.00
Default                                  : Yes
Forced                                   : No

Audio #1
ID                                       : 2
Format                                   : MLP FBA 16-ch
Format/Info                              : Meridian Lossless Packing FBA with 16-channel presentation
Commercial name                          : Dolby TrueHD with Dolby Atmos
Codec ID                                 : A_TRUEHD
Duration                                 : 1 h 45 min
Bit rate mode                            : Variable
Bit rate                                 : 5 185 kb/s
Maximum bit rate                         : 7 926 kb/s
Channel(s)                               : 8 channels
Channel layout                           : L R C LFE Ls Rs Lb Rb
Sampling rate                            : 48.0 kHz
Frame rate                               : 1 200.000 FPS (40 SPF)
Compression mode                         : Lossless
Stream size                              : 3.84 GiB (11%)
Title                                    : The.Jungle.Book.2016.2160p.BluRay.x265.10bit.SDR.DTS-HD.MA.TrueHD.7.1.Atmos-SWTYBLZ
Language                                 : English
Default                                  : Yes
Forced                                   : No
Number of dynamic objects                : 13
Bed channel count                        : 1 channel
Bed channel configuration                : LFE

Audio #2
ID                                       : 3
Format                                   : DTS XLL
Format/Info                              : Digital Theater Systems
Commercial name                          : DTS-HD Master Audio
Codec ID                                 : A_DTS
Duration                                 : 1 h 45 min
Bit rate mode                            : Variable
Bit rate                                 : 4 137 kb/s
Channel(s)                               : 8 channels
Channel layout                           : C L R LFE Lb Rb Lss Rss
Sampling rate                            : 48.0 kHz
Frame rate                               : 93.750 FPS (512 SPF)
Bit depth                                : 24 bits
Compression mode                         : Lossless
Stream size                              : 3.06 GiB (9%)
Title                                    : The.Jungle.Book.2016.2160p.BluRay.x265.10bit.SDR.DTS-HD.MA.TrueHD.7.1.Atmos-SWTYBLZ
Language                                 : English
Default                                  : No
Forced                                   : No

Audio #3
ID                                       : 4
Format                                   : AC-3
Format/Info                              : Audio Coding 3
Commercial name                          : Dolby Digital
Codec ID                                 : A_AC3
Duration                                 : 1 h 45 min
Bit rate mode                            : Constant
Bit rate                                 : 640 kb/s
Channel(s)                               : 6 channels
Channel layout                           : L R C LFE Ls Rs
Sampling rate                            : 48.0 kHz
Frame rate                               : 31.250 FPS (1536 SPF)
Compression mode                         : Lossy
Stream size                              : 485 MiB (1%)
Title                                    : The.Jungle.Book.2016.2160p.BluRay.x265.10bit.SDR.DTS-HD.MA.TrueHD.7.1.Atmos-SWTYBLZ
Language                                 : English
Service kind                             : Complete Main
Default                                  : No
Forced                                   : No

Text #1
ID                                       : 5
Format                                   : UTF-8
Codec ID                                 : S_TEXT/UTF8
Codec ID/Info                            : UTF-8 Plain Text
Duration                                 : 1 h 44 min
Bit rate                                 : 42 b/s
Count of elements                        : 1215
Stream size                              : 32.3 KiB (0%)
Title                                    : English-SRT
Language                                 : English
Default                                  : Yes
Forced                                   : No

Text #2
ID                                       : 6
Format                                   : UTF-8
Codec ID                                 : S_TEXT/UTF8
Codec ID/Info                            : UTF-8 Plain Text
Duration                                 : 1 h 44 min
Bit rate                                 : 47 b/s
Count of elements                        : 1402
Stream size                              : 36.5 KiB (0%)
Title                                    : English-SDH-SRT
Language                                 : English
Default                                  : No
Forced                                   : No

Text #3
ID                                       : 7
Format                                   : PGS
Muxing mode                              : zlib
Codec ID                                 : S_HDMV/PGS
Codec ID/Info                            : Picture based subtitle format used on BDs/HD-DVDs
Duration                                 : 1 h 44 min
Bit rate                                 : 32.4 kb/s
Count of elements                        : 2822
Stream size                              : 24.2 MiB (0%)
Title                                    : English-PGS
Language                                 : English
Default                                  : No
Forced                                   : No

Text #4
ID                                       : 8
Format                                   : PGS
Muxing mode                              : zlib
Codec ID                                 : S_HDMV/PGS
Codec ID/Info                            : Picture based subtitle format used on BDs/HD-DVDs
Duration                                 : 1 h 45 min
Bit rate                                 : 24.8 kb/s
Count of elements                        : 2256
Stream size                              : 18.7 MiB (0%)
Title                                    : French-PGS
Language                                 : French
Default                                  : No
Forced                                   : No

Text #5
ID                                       : 9
Format                                   : PGS
Muxing mode                              : zlib
Codec ID                                 : S_HDMV/PGS
Codec ID/Info                            : Picture based subtitle format used on BDs/HD-DVDs
Duration                                 : 1 h 44 min
Bit rate                                 : 22.6 kb/s
Count of elements                        : 2156
Stream size                              : 17.0 MiB (0%)
Title                                    : French-PGS
Language                                 : French
Default                                  : No
Forced                                   : No

Text #6
ID                                       : 10
Format                                   : PGS
Muxing mode                              : zlib
Codec ID                                 : S_HDMV/PGS
Codec ID/Info                            : Picture based subtitle format used on BDs/HD-DVDs
Duration                                 : 1 h 44 min
Bit rate                                 : 24.1 kb/s
Count of elements                        : 2204
Stream size                              : 18.1 MiB (0%)
Title                                    : Spanish-PGS
Language                                 : Spanish
Default                                  : No
Forced                                   : No

Text #7
ID                                       : 11
Format                                   : PGS
Muxing mode                              : zlib
Codec ID                                 : S_HDMV/PGS
Codec ID/Info                            : Picture based subtitle format used on BDs/HD-DVDs
Duration                                 : 1 h 44 min
Bit rate                                 : 26.9 kb/s
Count of elements                        : 2200
Stream size                              : 20.1 MiB (0%)
Title                                    : German-PGS
Language                                 : German
Default                                  : No
Forced                                   : No

Text #8
ID                                       : 12
Format                                   : PGS
Muxing mode                              : zlib
Codec ID                                 : S_HDMV/PGS
Codec ID/Info                            : Picture based subtitle format used on BDs/HD-DVDs
Duration                                 : 1 h 44 min
Bit rate                                 : 24.5 kb/s
Count of elements                        : 2220
Stream size                              : 18.4 MiB (0%)
Title                                    : Italian-PGS
Language                                 : Italian
Default                                  : No
Forced                                   : No

Text #9
ID                                       : 13
Format                                   : PGS
Muxing mode                              : zlib
Codec ID                                 : S_HDMV/PGS
Codec ID/Info                            : Picture based subtitle format used on BDs/HD-DVDs
Duration                                 : 1 h 44 min
Bit rate                                 : 23.8 kb/s
Count of elements                        : 2216
Stream size                              : 17.9 MiB (0%)
Title                                    : Norwegian-PGS
Language                                 : Norwegian
Default                                  : No
Forced                                   : No

Text #10
ID                                       : 14
Format                                   : PGS
Muxing mode                              : zlib
Codec ID                                 : S_HDMV/PGS
Codec ID/Info                            : Picture based subtitle format used on BDs/HD-DVDs
Duration                                 : 1 h 44 min
Bit rate                                 : 21.4 kb/s
Count of elements                        : 1424
Stream size                              : 16.0 MiB (0%)
Title                                    : Swedish-PGS
Language                                 : Swedish
Default                                  : No
Forced                                   : No

Menu
00:00:00.000                             : en:Chapter 01
00:00:48.590                             : en:Chapter 02
00:05:15.690                             : en:Chapter 03
00:09:02.250                             : en:Chapter 04
00:12:42.553                             : en:Chapter 05
00:16:34.159                             : en:Chapter 06
00:21:20.320                             : en:Chapter 07
00:27:15.133                             : en:Chapter 08
00:35:03.851                             : en:Chapter 09
00:43:21.890                             : en:Chapter 10
00:48:05.591                             : en:Chapter 11
00:53:29.331                             : en:Chapter 12
00:58:03.271                             : en:Chapter 13
01:05:47.318                             : en:Chapter 14
01:10:35.522                             : en:Chapter 15
01:17:01.325                             : en:Chapter 16
01:20:49.803                             : en:Chapter 17
01:24:46.372                             : en:Chapter 18
01:30:33.052                             : en:Chapter 19
01:35:53.164                             : en:Chapter 20



                                                                                                                                                                                                        
                                                                                                                                                                                                                                                                                                                                                                                                                                                                                                                                                                                                                                                                                                                                                                                                                                                      
826d35d5870fd8ce4456f20e32f9d5c9.torrent (84.47 KB, 下載次數: 0)

回復

使用道具 舉報

小黑屋|百度云資源論壇 |網站地圖

本網站所有資源來自網絡,如無意中侵犯了您的權益,請發郵件至 [email protected],立即清除相關鏈接

GMT+8, 2020-7-10 07:17 , Processed in 0.104632 second(s), 20 queries .

Powered by Discuz! X3.2

© 2001-2013 Comsenz Inc.

快速回復 返回頂部 返回列表
网络捕鱼赢现金游戏 北京pc蛋蛋28计划算法 11选5北京 赛车pk10官网开奖记录 精准内部一头一尾中特 山西快乐十分任五遗漏 安徽省11选五开奖走垫图 江苏十一选五遗漏 北京快乐8开奖直播360 江苏11选5开奖结果势图 陕西十一选五前三遗漏