百度云資源論壇

 找回密碼
 立即注冊
搜索
打印 上一主題 下一主題

[BD-4K] 終結者:黑暗命運 Terminator.Dark.Fate.2019.2160p.AMZN.WEBRip.DDP5.1.x26...

[復制鏈接]
跳轉到指定樓層
樓主
帖子完整標題:終結者:黑暗命運 Terminator.Dark.Fate.2019.2160p.AMZN.WEBRip.DDP5.1.x264-AJP69 29.87GB




◎譯  名 終結者:黑暗命運 / Terminator 6 / 未來戰士:黑暗命運(港) / 終結者2019 / 終結者6 / 終結者6:黑暗命運 / 終結者6:黑暗宿命 / 魔鬼終結者:黑暗宿命(臺)
◎片  名 Terminator: Dark Fate
◎年  代 2019
◎產  地 美國 / 中國大陸
◎類  別 動作 / 科幻 / 冒險
◎語  言 英語
◎上映日期 2019-10-23(法國) / 2019-11-01(美國/中國大陸)
◎IMDb評分  6.5/10 from 55705 users
◎bt電影天堂 www.btddy.com
◎片  長 128分鐘
◎導  演 蒂姆·米勒 Tim Miller
◎編  劇 詹姆斯·卡梅隆 James Cameron / 查爾斯·H·伊格里 Charles H. Eglee / 喬什·弗萊德曼 Josh Friedman / 大衛·S·高耶 David S. Goyer / 賈斯汀·羅德斯 Justin Rhodes / 比利·雷 Billy Ray / 蓋爾·安妮·赫德 Gale Anne Hurd
◎主  演 麥肯茲·戴維斯 Mackenzie Davis
       娜塔利婭·雷耶斯 Natalia Reyes
       琳達·漢密爾頓 Linda Hamilton
       阿諾·施瓦辛格 Arnold Schwarzenegger
       加布里埃爾·魯納 Gabriel Luna
       迪耶戈·博內塔 Diego Boneta
       恩里克·阿爾切 Enrique Arce
       特里斯坦·烏羅阿 Tristán Ulloa
       艾麗西婭·博拉切羅 Alicia Borrachero
       布雷特·阿扎爾 Brett Azar
       史蒂芬·克里 Steven Cree
       羅謝爾·尼爾 Rochelle Neil
       弗雷澤·杰姆斯 Fraser James
       克勞迪婭·特魯希略 Claudia Trujillo
       比約恩·弗賴貝格 Bj?rn Freiberg
       約翰·蓋蒂爾 John Gettier
       彼得·奧蒙德 Peter Ormond
       Lorna Brown
       Peter Schueller


◎標  簽 科幻 | 動作 | 美國 | 機器人 | 2019 | 情懷 | 冒險 | 劇情

◎簡  介  

  《終結者2:審判日》發生的27年后,由于未來天網派來T-800成功殺死年幼的約翰,以致令未來產生變化,一個全新進化的液態金屬終結者從未來派出,目的是追殺持有關鍵訊息的丹妮·拉莫斯、半生化人葛蕾絲和她的朋友。這使莎拉·康納以及成功殺死約翰的T800終結者前來幫助她們一行人,以共同為了人類的未來而戰。

◎獲獎情況  

  第6屆豆瓣電影年度榜單(2019)
  評分最高的科幻/動作片(提名)
Video
ID                                       : 1
Format                                   : AVC
Format/Info                              : Advanced Video Codec
Format settings                          : CABAC / 7 Ref Frames
Format settings, CABAC                   : Yes
Format settings, Reference frames        : 7 frames
Codec ID                                 : V_MPEG4/ISO/AVC
Duration                                 : 2 h 8 min
Bit rate                                 : 32.7 Mb/s
Width                                    : 3 840 pixels
Height                                   : 1 600 pixels
Display aspect ratio                     : 2.40:1
Frame rate mode                          : Constant
Frame rate                               : 23.976 (24000/1001) FPS
Color space                              : YUV
Chroma subsampling                       : 4:2:0
Bit depth                                : 8 bits
Scan type                                : Progressive
Bits/(Pixel*Frame)                       : 0.222
Stream size                              : 29.3 GiB (98%)
Writing library                          : x264 core 158 r2984 3759fcb
Encoding settings                        : cabac=1 / ref=7 / deblock=1:-3:-3 / analyse=0x3:0x133 / me=umh / subme=10 / psy=1 / psy_rd=1.00:0.00 / mixed_ref=1 / me_range=48 / chroma_me=1 / trellis=2 / 8x8dct=1 / cqm=0 / deadzone=21,11 / fast_pskip=0 / chroma_qp_offset=-2 / threads=24 / lookahead_threads=4 / sliced_threads=0 / nr=0 / decimate=0 / interlaced=0 / bluray_compat=0 / constrained_intra=0 / bframes=8 / b_pyramid=2 / b_adapt=2 / b_bias=0 / direct=3 / weightb=1 / open_gop=0 / weightp=2 / keyint=250 / keyint_min=23 / scenecut=40 / intra_refresh=0 / rc=crf / mbtree=0 / crf=20.0 / qcomp=0.60 / qpmin=0 / qpmax=69 / qpstep=4 / ip_ratio=1.30 / pb_ratio=1.20 / aq=3:0.80
Default                                  : Yes
Forced                                   : No

Audio
ID                                       : 2
Format                                   : E-AC-3
Format/Info                              : Enhanced AC-3
Commercial name                          : Dolby Digital Plus
Codec ID                                 : A_EAC3
Duration                                 : 2 h 8 min
Bit rate mode                            : Constant
Bit rate                                 : 640 kb/s
Channel(s)                               : 6 channels
Channel layout                           : L R C LFE Ls Rs
Sampling rate                            : 48.0 kHz
Frame rate                               : 31.250 FPS (1536 SPF)
Compression mode                         : Lossy
Stream size                              : 586 MiB (2%)
Language                                 : English
Service kind                             : Complete Main
Default                                  : Yes
Forced                                   : No

Text #1
ID                                       : 3
Format                                   : UTF-8
Codec ID                                 : S_TEXT/UTF8
Codec ID/Info                            : UTF-8 Plain Text
Duration                                 : 1 h 57 min
Bit rate                                 : 32 b/s
Count of elements                        : 1121
Stream size                              : 27.9 KiB (0%)
Language                                 : English
Default                                  : No
Forced                                   : No

Text #2
ID                                       : 4
Format                                   : UTF-8
Codec ID                                 : S_TEXT/UTF8
Codec ID/Info                            : UTF-8 Plain Text
Duration                                 : 1 h 57 min
Bit rate                                 : 39 b/s
Count of elements                        : 1430
Stream size                              : 33.6 KiB (0%)
Title                                    : SDH
Language                                 : English
Default                                  : No
Forced                                   : No



                                                                                                                                                                                                        
                                                                                                                                                                                                                                                                                                                                                                                                                                                                                                                                                                                                                                                                                                                                                                                                                                                      
62589c49f78ca421a624bb4674e3c304.torrent (75.23 KB, 下載次數: 0)

回復

使用道具 舉報

小黑屋|百度云資源論壇 |網站地圖

本網站所有資源來自網絡,如無意中侵犯了您的權益,請發郵件至 [email protected],立即清除相關鏈接

GMT+8, 2020-2-15 15:43 , Processed in 0.134489 second(s), 20 queries .

Powered by Discuz! X3.2

© 2001-2013 Comsenz Inc.

快速回復 返回頂部 返回列表
网络捕鱼赢现金游戏