百度云資源論壇

 找回密碼
 立即注冊
搜索
打印 上一主題 下一主題

[4K-原盤] 喪尸樂園2 Zombieland.Double.Tap.2019.2160p.BluRay.REMUX.HEVC.DTS-X.7.1-FG...

[復制鏈接]
跳轉到指定樓層
樓主
帖子完整標題:喪尸樂園2 Zombieland.Double.Tap.2019.2160p.BluRay.REMUX.HEVC.DTS-X.7.1-FGT 49.24GB




◎譯  名 喪尸樂園2 / Zombieland 2 / 喪尸樂園2:雙擊 / 喪尸樂園:連環尸殺(港) / 僵尸之地2 / 僵尸之地2:雙擊 / 尸樂園:臟比雙拼(臺)
◎片  名 Zombieland: Double Tap
◎年  代 2019
◎產  地 美國 / 加拿大
◎類  別 喜劇 / 動作 / 恐怖
◎語  言 英語
◎上映日期 2019-10-09(中國臺灣) / 2019-10-18(美國)
◎IMDb評分  6.9/10 from 61783 users
◎bt電影天堂 www.btddy.com
◎片  長 99分鐘
◎導  演 魯本·弗雷斯徹 Ruben Fleischer
◎編  劇 戴夫·卡拉漢姆 Dave Callaham / 瑞特·里斯 Rhett Reese / 保羅·韋尼克 Paul Wernick
◎主  演 伍迪·哈里森 Woody Harrelson
       杰西·艾森伯格 Jesse Eisenberg
       艾瑪·斯通 Emma Stone
       阿比蓋爾·布雷斯林 Abigail Breslin
       佐伊·達奇 Zoey Deutch
       阿萬·喬賈 Avan Jogia
       羅莎里奧·道森 Rosario Dawson
       盧克·威爾遜 Luke Wilson
       托馬斯·米德蒂奇 Thomas Middleditch
       維多利亞·哈爾 Victoria Hall
       維克多·里維拉 Victor Rivera
       伊恩·格雷格 Ian Gregg
       德文·莫吉卡 Devin Mojica
       瑞秋·魯特雷爾 Rachel Luttrell
       約翰·迪克森 John Dixon
       比爾·默瑞 Bill Murray
       阿爾·羅克 Al Roker
       莉莉·埃斯特凡 Lili Estefan
       塞爾吉奧·布里奧內斯 Sergio Briones
       蒂莫西·卡爾 Timothy Carr
       扎拉·麥克道威爾 Zara McDowell
       迪索·拉莫斯 Diezel Ramos


◎標  簽 喜劇 | 喪尸 | 美國 | 搞笑 | 僵尸 | 2019 | 恐怖 | 動作

◎簡  介  

  《僵尸之地》是魯本·弗雷斯徹的導演處女作,上映后好評如潮——獲得了爛番茄89%的驚人好評率,此片一舉奠定了魯本在好萊塢商業領域的地位。首映周末以2500萬美元登頂冠軍的《僵尸之地》,是受到幾年前《僵尸肖恩》的啟發進行創作的,影片講述了一種致命病毒席卷了美國,只要被病毒感染,就會變成僵尸。最終,只有幾個幸存者沒有被感染病毒,決定逃離,獲得生存的機會。兩個性格迥異的男人湊到了一起,前者對待僵尸的進攻別有心得(制定了一大堆“規則”),后者則是個暴力崇尚者,企圖殺光所有的僵尸。在他們逃亡的途中,邂逅了兩個精明的女幸存者,他們四人決定一起分享對付僵尸的經驗,獲得逃生的機會。然而,在殺戮過程中,他們遭遇的危險超出了所有人的想象。按照好萊塢賣座片的類型規律,像《僵尸之地》這種投資僅2000多萬美元,沒有一線大牌主演的僵尸片,基本都是爛片集中營的當家老大,但此片的成功卻來的非常迅猛。這全歸功于導演的創意,影片結尾高潮處在游樂園大戰僵尸一段,觀賞性極強。
  《僵尸之地》的主演杰西·艾森伯格、伍迪·哈里森、艾瑪·斯通、阿比蓋爾·布萊斯林,目前已確定愿意回歸劇組參加續集的拍攝,但劇本仍然在創作之中,預計10年上半年開機。
  電影《僵尸之地》(Zombieland)導演魯本.費雷斯徹(Ruben Fleischer)近日在接受采訪時透露《僵尸之地》續集有望2010年年底正式開拍。
  “我們正在與制片方接觸,我們有一些點子它們也非常喜歡。我們肯定會以3D的形式拍攝這部續集。索尼現在已經有自己的3D部門了,我們將在周二(3月2日)參觀索尼的3D部門。我知道所有原班人馬都很激動回歸續集,這將是1部拍攝過程十分精彩有趣的電影。劇本即將開始創作,我希望能在今年年底或者明年年初正式開拍《僵尸之地2》。”
Video
ID                                       : 1
Format                                   : HEVC
Format/Info                              : High Efficiency Video Coding
HDR format                               : SMPTE ST 2086, HDR10 compatible
Codec ID                                 : V_MPEGH/ISO/HEVC
Duration                                 : 1 h 39 min
Bit rate                                 : 54.2 Mb/s
Width                                    : 3 840 pixels
Height                                   : 2 160 pixels
Display aspect ratio                     : 16:9
Frame rate mode                          : Constant
Frame rate                               : 23.976 (24000/1001) FPS
Color space                              : YUV
Chroma subsampling                       : 4:2:0 (Type 2)
Bit depth                                : 10 bits
Bits/(Pixel*Frame)                       : 0.272
Stream size                              : 37.5 GiB (76%)
Title                                    : Zombieland.Double.Tap.2019.2160p.BluRay.REMUX.HEVC.DTS-X.7.1-FGT
Language                                 : English
Default                                  : No
Forced                                   : No
Color range                              : Limited
Color primaries                          : BT.2020
Transfer characteristics                 : PQ
Matrix coefficients                      : BT.2020 non-constant
Mastering display color primaries        : Display P3
Mastering display luminance              : min: 0.0050 cd/m2, max: 4000 cd/m2
Maximum Content Light Level              : 1001 cd/m2
Maximum Frame-Average Light Level        : 387 cd/m2

Audio #1
ID                                       : 2
Format                                   : DTS XLL
Format/Info                              : Digital Theater Systems
Commercial name                          : DTS-HD Master Audio
Codec ID                                 : A_DTS
Duration                                 : 1 h 39 min
Bit rate mode                            : Variable
Bit rate                                 : 5 292 kb/s
Channel(s)                               : 8 channels
Channel layout                           : C L R LFE Lb Rb Lss Rss
Sampling rate                            : 48.0 kHz
Frame rate                               : 93.750 FPS (512 SPF)
Bit depth                                : 24 bits
Compression mode                         : Lossless
Stream size                              : 3.66 GiB (7%)
Title                                    : Zombieland.Double.Tap.2019.2160p.BluRay.REMUX.HEVC.DTS-X.7.1-FGT
Language                                 : English
Default                                  : Yes
Forced                                   : No

Audio #2
ID                                       : 3
Format                                   : AC-3
Format/Info                              : Audio Coding 3
Commercial name                          : Dolby Digital
Codec ID                                 : A_AC3
Duration                                 : 1 h 39 min
Bit rate mode                            : Constant
Bit rate                                 : 640 kb/s
Channel(s)                               : 6 channels
Channel layout                           : L R C LFE Ls Rs
Sampling rate                            : 48.0 kHz
Frame rate                               : 31.250 FPS (1536 SPF)
Bit depth                                : 16 bits
Compression mode                         : Lossy
Stream size                              : 453 MiB (1%)
Title                                    : Zombieland.Double.Tap.2019.2160p.BluRay.REMUX.HEVC.DTS-X.7.1-FGT
Language                                 : English
Service kind                             : Complete Main
Default                                  : No
Forced                                   : No

Audio #3
ID                                       : 4
Format                                   : AC-3
Format/Info                              : Audio Coding 3
Commercial name                          : Dolby Digital
Codec ID                                 : A_AC3
Duration                                 : 1 h 39 min
Bit rate mode                            : Constant
Bit rate                                 : 640 kb/s
Channel(s)                               : 6 channels
Channel layout                           : L R C LFE Ls Rs
Sampling rate                            : 48.0 kHz
Frame rate                               : 31.250 FPS (1536 SPF)
Bit depth                                : 16 bits
Compression mode                         : Lossy
Stream size                              : 453 MiB (1%)
Title                                    : Zombieland.Double.Tap.2019.2160p.BluRay.REMUX.HEVC.DTS-X.7.1-FGT
Language                                 : English
Service kind                             : Complete Main
Default                                  : No
Forced                                   : No

Audio #4
ID                                       : 5
Format                                   : AC-3
Format/Info                              : Audio Coding 3
Commercial name                          : Dolby Digital
Codec ID                                 : A_AC3
Duration                                 : 1 h 39 min
Bit rate mode                            : Constant
Bit rate                                 : 640 kb/s
Channel(s)                               : 6 channels
Channel layout                           : L R C LFE Ls Rs
Sampling rate                            : 48.0 kHz
Frame rate                               : 31.250 FPS (1536 SPF)
Bit depth                                : 16 bits
Compression mode                         : Lossy
Stream size                              : 453 MiB (1%)
Title                                    : Zombieland.Double.Tap.2019.2160p.BluRay.REMUX.HEVC.DTS-X.7.1-FGT
Language                                 : Czech
Service kind                             : Complete Main
Default                                  : No
Forced                                   : No

Audio #5
ID                                       : 6
Format                                   : AC-3
Format/Info                              : Audio Coding 3
Commercial name                          : Dolby Digital
Codec ID                                 : A_AC3
Duration                                 : 1 h 39 min
Bit rate mode                            : Constant
Bit rate                                 : 640 kb/s
Channel(s)                               : 6 channels
Channel layout                           : L R C LFE Ls Rs
Sampling rate                            : 48.0 kHz
Frame rate                               : 31.250 FPS (1536 SPF)
Bit depth                                : 16 bits
Compression mode                         : Lossy
Stream size                              : 453 MiB (1%)
Title                                    : Zombieland.Double.Tap.2019.2160p.BluRay.REMUX.HEVC.DTS-X.7.1-FGT
Language                                 : French
Service kind                             : Complete Main
Default                                  : No
Forced                                   : No

Audio #6
ID                                       : 7
Format                                   : AC-3
Format/Info                              : Audio Coding 3
Commercial name                          : Dolby Digital
Codec ID                                 : A_AC3
Duration                                 : 1 h 39 min
Bit rate mode                            : Constant
Bit rate                                 : 640 kb/s
Channel(s)                               : 6 channels
Channel layout                           : L R C LFE Ls Rs
Sampling rate                            : 48.0 kHz
Frame rate                               : 31.250 FPS (1536 SPF)
Bit depth                                : 16 bits
Compression mode                         : Lossy
Stream size                              : 453 MiB (1%)
Title                                    : Zombieland.Double.Tap.2019.2160p.BluRay.REMUX.HEVC.DTS-X.7.1-FGT
Language                                 : French
Service kind                             : Complete Main
Default                                  : No
Forced                                   : No

Audio #7
ID                                       : 8
Format                                   : AC-3
Format/Info                              : Audio Coding 3
Commercial name                          : Dolby Digital
Codec ID                                 : A_AC3
Duration                                 : 1 h 39 min
Bit rate mode                            : Constant
Bit rate                                 : 640 kb/s
Channel(s)                               : 6 channels
Channel layout                           : L R C LFE Ls Rs
Sampling rate                            : 48.0 kHz
Frame rate                               : 31.250 FPS (1536 SPF)
Bit depth                                : 16 bits
Compression mode                         : Lossy
Stream size                              : 453 MiB (1%)
Title                                    : Zombieland.Double.Tap.2019.2160p.BluRay.REMUX.HEVC.DTS-X.7.1-FGT
Language                                 : Hungarian
Service kind                             : Complete Main
Default                                  : No
Forced                                   : No

Audio #8
ID                                       : 9
Format                                   : AC-3
Format/Info                              : Audio Coding 3
Commercial name                          : Dolby Digital
Codec ID                                 : A_AC3
Duration                                 : 1 h 39 min
Bit rate mode                            : Constant
Bit rate                                 : 640 kb/s
Channel(s)                               : 6 channels
Channel layout                           : L R C LFE Ls Rs
Sampling rate                            : 48.0 kHz
Frame rate                               : 31.250 FPS (1536 SPF)
Bit depth                                : 16 bits
Compression mode                         : Lossy
Stream size                              : 453 MiB (1%)
Title                                    : Zombieland.Double.Tap.2019.2160p.BluRay.REMUX.HEVC.DTS-X.7.1-FGT
Language                                 : Polish
Service kind                             : Complete Main
Default                                  : No
Forced                                   : No

Audio #9
ID                                       : 10
Format                                   : DTS XLL
Format/Info                              : Digital Theater Systems
Commercial name                          : DTS-HD Master Audio
Codec ID                                 : A_DTS
Duration                                 : 1 h 39 min
Bit rate mode                            : Variable
Bit rate                                 : 2 263 kb/s
Channel(s)                               : 6 channels
Channel layout                           : C L R Ls Rs LFE
Sampling rate                            : 48.0 kHz
Frame rate                               : 93.750 FPS (512 SPF)
Bit depth                                : 16 bits
Compression mode                         : Lossless
Stream size                              : 1.57 GiB (3%)
Title                                    : Zombieland.Double.Tap.2019.2160p.BluRay.REMUX.HEVC.DTS-X.7.1-FGT
Language                                 : Portuguese
Default                                  : No
Forced                                   : No

Audio #10
ID                                       : 11
Format                                   : AC-3
Format/Info                              : Audio Coding 3
Commercial name                          : Dolby Digital
Codec ID                                 : A_AC3
Duration                                 : 1 h 39 min
Bit rate mode                            : Constant
Bit rate                                 : 448 kb/s
Channel(s)                               : 6 channels
Channel layout                           : L R C LFE Ls Rs
Sampling rate                            : 48.0 kHz
Frame rate                               : 31.250 FPS (1536 SPF)
Bit depth                                : 16 bits
Compression mode                         : Lossy
Stream size                              : 317 MiB (1%)
Title                                    : Zombieland.Double.Tap.2019.2160p.BluRay.REMUX.HEVC.DTS-X.7.1-FGT
Language                                 : Portuguese
Service kind                             : Complete Main
Default                                  : No
Forced                                   : No

Menu
00:00:00.000                             : en:Chapter 01
00:05:01.134                             : en:Chapter 02
00:11:08.000                             : en:Chapter 03
00:15:24.173                             : en:Chapter 04
00:21:16.191                             : en:Chapter 05
00:29:15.545                             : en:Chapter 06
00:36:55.421                             : en:Chapter 07
00:44:03.015                             : en:Chapter 08
00:50:12.968                             : en:Chapter 09
00:57:52.510                             : en:Chapter 10
01:03:51.869                             : en:Chapter 11
01:06:50.047                             : en:Chapter 12
01:10:12.124                             : en:Chapter 13
01:15:40.494                             : en:Chapter 14
01:23:45.311                             : en:Chapter 15
01:29:48.216                             : en:Chapter 16



                                                                                                                                                                                                        
                                                                                                                                                                                                                                                                                                                                                                                                                                                                                                                                                                                                                                                                                                                                                                                                                                                      
02c5f3c5fee28bcda1475085642057fd.torrent (123.66 KB, 下載次數: 0)

回復

使用道具 舉報

小黑屋|百度云資源論壇 |網站地圖

本網站所有資源來自網絡,如無意中侵犯了您的權益,請發郵件至 [email protected],立即清除相關鏈接

GMT+8, 2020-2-15 15:43 , Processed in 0.101871 second(s), 20 queries .

Powered by Discuz! X3.2

© 2001-2013 Comsenz Inc.

快速回復 返回頂部 返回列表
网络捕鱼赢现金游戏