百度云資源論壇

 找回密碼
 立即注冊
搜索
打印 上一主題 下一主題

[BD-4K] 沉睡魔咒2 Maleficent.Mistress.of.Evil.2019.2160p.WEB.H265-DEFLATE 21.10GB

[復制鏈接]
跳轉到指定樓層
樓主
帖子完整標題:沉睡魔咒2 Maleficent.Mistress.of.Evil.2019.2160p.WEB.H265-DEFLATE 21.10GB




◎譯  名 沉睡魔咒2 / Maleficent 2 / 沉睡魔咒2:惡魔夫人 / 瑪琳菲森2 / 黑魔后2(港) / 黑魔女2(臺)
◎片  名 Maleficent: Mistress of Evil
◎年  代 2019
◎產  地 美國
◎類  別 奇幻 / 冒險
◎語  言 英語
◎上映日期 2019-10-18(美國/中國大陸)
◎片  長 119分鐘
◎導  演 喬阿吉姆·羅恩尼 Joachim R?nning
◎編  劇 邁卡·費茲曼-布盧 Micah Fitzerman-Blue / 諾亞·哈普斯特 Noah Harpster / 琳達·伍爾芙頓 Linda Woolverton
◎主  演 安吉麗娜·朱莉 Angelina Jolie
       艾麗·范寧 Elle Fanning
       米歇爾·菲佛 Michelle Pfeiffer
       薩姆·賴利 Sam Riley
       哈里斯·迪金森 Harris Dickinson
       艾德·斯克林 Ed Skrein
       切瓦特·埃加福特 Chiwetel Ejiofor
       朱諾·坦普爾 Juno Temple
       艾美達·斯丹頓 Imelda Staunton
       卡·亞歷山大 Kae Alexander
       萊絲利·曼維爾 Lesley Manville
       詹·穆瑞 Jenn Murray
       石原貴雅 Miyavi
       大衛·吉雅西 David Gyasi
       羅伯特·林德森 Robert Lindsay
       朱迪斯·沙克妮 Judith Shekoni
       伯納多·桑托斯 Bernardo Santos
       薩克·霍蘭 Zak Holland
       巴里·艾爾德 Barry Aird
       耶斯·利奧丹 Jess Liaudin
       拉塞爾·巴洛格 Russell Balogh
       拉亞·坎普貝爾 Rayna Campbell
       斯嘉麗·格蘭特 Scarlett Grant
       湯姆·伯寧頓 Tom Bonington
       阿克塞爾·努 Axel Nu
       特蕾莎·馬奧尼 Teresa Mahoney
       John Carew


◎標  簽 迪士尼 | 童話 | 奇幻 | 美國 | 2019 | 魔幻 | 美 | 童話改編

◎簡  介  

  《沉睡魔咒》續集將講述魔女瑪琳菲森(朱莉)和將成為女王的愛洛公主(范寧)關系緩和但依舊復雜,但兩人要聯手對付新的反派,保護森林王國和那里神奇的動物們。
Video
ID                                       : 1
Format                                   : HEVC
Codec ID                                 : V_MPEGH/ISO/HEVC
Duration                                 : 1 h 58 min
Bit rate                                 : 24.3 Mb/s
Width                                    : 3 840 pixels
Height                                   : 1 600 pixels
Display aspect ratio                     : 2.40:1
Frame rate mode                          : Constant
Frame rate                               : 23.976 (24000/1001) FPS
Standard                                 : NTSC
Color space                              : YUV
Chroma subsampling                       : 4:2:0
Bit depth                                : 8 bits
Bits/(Pixel*Frame)                       : 0.165
Stream size                              : 20.1 GiB (95%)
Default                                  : Yes
Forced                                   : No
Color range                              : Limited
Color primaries                          : BT.709
Transfer characteristics                 : BT.709
Matrix coefficients                      : BT.709

Audio
ID                                       : 2
Format                                   : E-AC-3 JOC
Format/Info                              : Enhanced AC-3 with Joint Object Coding
Commercial name                          : Dolby Digital Plus with Dolby Atmos
Codec ID                                 : A_EAC3
Duration                                 : 1 h 58 min
Bit rate mode                            : Constant
Bit rate                                 : 640 kb/s
Channel(s)                               : 6 channels
Channel layout                           : L R C LFE Ls Rs
Sampling rate                            : 48.0 kHz
Frame rate                               : 31.250 FPS (1536 SPF)
Compression mode                         : Lossy
Stream size                              : 544 MiB (3%)
Language                                 : English
Service kind                             : Complete Main
Default                                  : Yes
Forced                                   : No
Complexity index                         : 16
Number of dynamic objects                : 15
Bed channel count                        : 1 channel
Bed channel configuration                : LFE

Text #1
ID                                       : 3
Format                                   : UTF-8
Codec ID                                 : S_TEXT/UTF8
Codec ID/Info                            : UTF-8 Plain Text
Title                                    : English
Language                                 : English
Default                                  : No
Forced                                   : No

Text #2
ID                                       : 4
Format                                   : UTF-8
Codec ID                                 : S_TEXT/UTF8
Codec ID/Info                            : UTF-8 Plain Text
Title                                    : English (SDH)
Language                                 : English
Default                                  : No
Forced                                   : No

Menu
00:00:00.000                             : en:Missing Faeries
00:06:45.000                             : en:The Big Day
00:09:09.000                             : enon\'t Ruin My Morning
00:14:42.000                             : en:A Time to Celebrate
00:19:24.000                             : en:An Evil Plan
00:23:07.000                             : eninner at the Castle
00:33:48.000                             : en:Out of the Sky
00:39:06.000                             : en:Carried Away
00:42:15.000                             : en:The Dark Fey
00:48:27.000                             : en:Nest of Origin
00:52:39.000                             : en:Wedding Invitation
00:57:10.000                             : en:A Different Person
00:59:20.000                             : en:Underground secrets
01:05:41.000                             : en:The Wedding Day
01:09:25.000                             : en:A Curse Revealed
01:19:00.000                             : en:A War
01:22:41.000                             : en:\"Remember Who You Are\"
01:29:02.000                             : en:Maleficent Arrives
01:34:53.000                             : en:Chaos of War
01:44:18.000                             : en:\"Will You Give Me Away?\"
01:50:58.000                             : en:End Credits / \"You Can\'t Stop The Girl\"



                                                                                                                                                                                                        
                                                                                                                                                                                                                                                                                                                                                                                                                                                                                                                                                                                                                                                                                                                                                                                                                                                      
5d13f2d96257268aa1fc516a0ebe0b06.torrent (53.47 KB, 下載次數: 0)

回復

使用道具 舉報

小黑屋|百度云資源論壇 |網站地圖

本網站所有資源來自網絡,如無意中侵犯了您的權益,請發郵件至 [email protected],立即清除相關鏈接

GMT+8, 2020-2-15 15:44 , Processed in 0.102520 second(s), 20 queries .

Powered by Discuz! X3.2

© 2001-2013 Comsenz Inc.

快速回復 返回頂部 返回列表
网络捕鱼赢现金游戏