百度云資源論壇

 找回密碼
 立即注冊
搜索
打印 上一主題 下一主題

[4K-原盤] 小丑 Joker.2019.2160p.BluRay.REMUX.HEVC.DTS-HD.MA.TrueHD.7.1.Atmos-FGT 51.62GB

[復制鏈接]
跳轉到指定樓層
樓主
帖子完整標題:小丑 Joker.2019.2160p.BluRay.REMUX.HEVC.DTS-HD.MA.TrueHD.7.1.Atmos-FGT 51.62GB




◎譯  名 小丑 / Joker Origin Movie / Romeo / 小丑起源電影:羅密歐
◎片  名 Joker
◎年  代 2019
◎產  地 美國
◎類  別 劇情 / 驚悚 / 犯罪
◎語  言 英語
◎上映日期 2019-08-31(威尼斯電影節) / 2019-10-04(美國)
◎片  長 122分鐘
◎導  演 托德·菲利普斯 Todd Phillips
◎編  劇 托德·菲利普斯 Todd Phillips / 斯科特·西爾弗 Scott Silver
◎主  演 杰昆·菲尼克斯 Joaquin Phoenix
       羅伯特·德尼羅 Robert De Niro
       馬克·馬龍 Marc Maron
       莎姬·貝茲 Zazie Beetz
       謝·惠根姆 Shea Whigham
       弗蘭西絲·康羅伊 Frances Conroy
       布萊恩·考倫 Bryan Callen
       布萊恩·泰里·亨利 Brian Tyree Henry
       布萊特·卡倫 Brett Cullen
       道格拉斯·霍奇斯 Douglas Hodges
       格倫·弗萊施勒 Glenn Fleshler
       比爾·坎普 Bill Camp
       喬什·帕斯 Josh Pais
       但丁·佩雷拉-奧爾森 Dante Pereira-Olson
       瑪麗·凱特·馬拉特 Mary Kate Malat
       邁克爾·本茨 Michael Benz
       莎瓏·華盛頓 Sharon Washington
       桑德拉·詹姆斯 Sondra James
       托尼·赫德 Tony Head
       曼德拉·貝拉米 Mandela Bellamy
       喬·奧克曼 Joe Ochman
       卡爾·倫德施泰特 Carl Lundstedt
       米克·奧羅克 Mick O'Rourke
       大衛·吉布森 David Gibson
       伊萬·羅薩多 Evan Rosado
       安妮·比薩比亞 Annie Pisapia
       布萊斯·科里根 Blaise Corrigan
       喬恩·道格拉斯·雷尼 Jon Douglas Rainey
       艾恩斯利·丹恩 Aynsleigh Dann
       杰森·約翰·奇卡萊塞 Jason John Cicalese
       Jolie Chan
       Isabella Ferreira
       Gary Gulman


◎標  簽 小丑 | DC | 犯罪 | 杰昆菲尼克斯 | 美國 | 2019 | 超級英雄 | 蝙蝠俠

◎簡  介  

  電影《小丑》以同名DC漫畫角色為基礎,由華納兄弟影業公司發行,計劃于2019年10月4日上映。本片的故事將獨立于DCEU之外,故事背景設置在20世紀80年代,講述了一位生活陷入困境的脫口秀喜劇演員漸漸走向精神的崩潰,在哥譚市開始了瘋狂的犯罪生涯,最終成為了蝙蝠俠的宿敵“小丑”的故事。
  本片由《宿醉》的導演托德菲利普斯執導,他與編劇斯科特西爾弗一起撰寫了編劇。杰昆菲尼克斯本片中飾演主人公“小丑”,其他的主演包括羅伯特德尼羅、莎姬貝茲、馬克馬龍等。

◎獲獎情況  

  第76屆威尼斯電影節(2019)
  主競賽單元 金獅獎 托德·菲利普斯
Video #2
ID                                       : 2
Format                                   : HEVC
Format/Info                              : High Efficiency Video Coding
HDR format                               : SMPTE ST 2086, HDR10 compatible
Codec ID                                 : V_MPEGH/ISO/HEVC
Duration                                 : 2 h 1 min
Bit rate                                 : 62.9 kb/s
Width                                    : 1 920 pixels
Height                                   : 1 080 pixels
Display aspect ratio                     : 16:9
Frame rate mode                          : Constant
Frame rate                               : 23.976 (24000/1001) FPS
Color space                              : YUV
Chroma subsampling                       : 4:2:0 (Type 2)
Bit depth                                : 10 bits
Bits/(Pixel*Frame)                       : 0.001
Stream size                              : 54.8 MiB (0%)
Title                                    : Joker.2019.2160p.BluRay.REMUX.HEVC.DTS-HD.MA.TrueHD.7.1.Atmos-FGT
Language                                 : English
Default                                  : No
Forced                                   : No
Color range                              : Limited
Color primaries                          : BT.2020
Transfer characteristics                 : PQ
Matrix coefficients                      : BT.2020 non-constant
Mastering display color primaries        : Display P3
Mastering display luminance              : min: 0.0050 cd/m2, max: 4000 cd/m2

Audio #1
ID                                       : 3
Format                                   : MLP FBA 16-ch
Format/Info                              : Meridian Lossless Packing FBA with 16-channel presentation
Commercial name                          : Dolby TrueHD with Dolby Atmos
Codec ID                                 : A_TRUEHD
Duration                                 : 2 h 1 min
Bit rate mode                            : Variable
Bit rate                                 : 3 819 kb/s
Maximum bit rate                         : 7 158 kb/s
Channel(s)                               : 8 channels
Channel layout                           : L R C LFE Ls Rs Lb Rb
Sampling rate                            : 48.0 kHz
Frame rate                               : 1 200.000 FPS (40 SPF)
Compression mode                         : Lossless
Stream size                              : 3.25 GiB (6%)
Title                                    : Joker.2019.2160p.BluRay.REMUX.HEVC.DTS-HD.MA.TrueHD.7.1.Atmos-FGT
Language                                 : English
Default                                  : Yes
Forced                                   : No
Number of dynamic objects                : 15
Bed channel count                        : 1 channel
Bed channel configuration                : LFE

Audio #2
ID                                       : 4
Format                                   : DTS XLL
Format/Info                              : Digital Theater Systems
Commercial name                          : DTS-HD Master Audio
Codec ID                                 : A_DTS
Duration                                 : 2 h 1 min
Bit rate mode                            : Variable
Bit rate                                 : 4 065 kb/s
Channel(s)                               : 8 channels
Channel layout                           : C L R LFE Lb Rb Lss Rss
Sampling rate                            : 48.0 kHz
Frame rate                               : 93.750 FPS (512 SPF)
Bit depth                                : 24 bits
Compression mode                         : Lossless
Stream size                              : 3.46 GiB (7%)
Title                                    : Joker.2019.2160p.BluRay.REMUX.HEVC.DTS-HD.MA.TrueHD.7.1.Atmos-FGT
Language                                 : English
Default                                  : No
Forced                                   : No

Audio #3
ID                                       : 5
Format                                   : AC-3
Format/Info                              : Audio Coding 3
Commercial name                          : Dolby Digital
Codec ID                                 : A_AC3
Duration                                 : 2 h 1 min
Bit rate mode                            : Constant
Bit rate                                 : 640 kb/s
Channel(s)                               : 6 channels
Channel layout                           : L R C LFE Ls Rs
Sampling rate                            : 48.0 kHz
Frame rate                               : 31.250 FPS (1536 SPF)
Bit depth                                : 16 bits
Compression mode                         : Lossy
Stream size                              : 558 MiB (1%)
Title                                    : Joker.2019.2160p.BluRay.REMUX.HEVC.DTS-HD.MA.TrueHD.7.1.Atmos-FGT
Language                                 : English
Service kind                             : Complete Main
Default                                  : No
Forced                                   : No

Audio #4
ID                                       : 6
Format                                   : AC-3
Format/Info                              : Audio Coding 3
Commercial name                          : Dolby Digital
Codec ID                                 : A_AC3
Duration                                 : 2 h 1 min
Bit rate mode                            : Constant
Bit rate                                 : 448 kb/s
Channel(s)                               : 6 channels
Channel layout                           : L R C LFE Ls Rs
Sampling rate                            : 48.0 kHz
Frame rate                               : 31.250 FPS (1536 SPF)
Bit depth                                : 16 bits
Compression mode                         : Lossy
Stream size                              : 390 MiB (1%)
Title                                    : Joker.2019.2160p.BluRay.REMUX.HEVC.DTS-HD.MA.TrueHD.7.1.Atmos-FGT
Language                                 : English
Service kind                             : Complete Main
Default                                  : No
Forced                                   : No

Audio #5
ID                                       : 7
Format                                   : AC-3
Format/Info                              : Audio Coding 3
Commercial name                          : Dolby Digital
Codec ID                                 : A_AC3
Duration                                 : 2 h 1 min
Bit rate mode                            : Constant
Bit rate                                 : 448 kb/s
Channel(s)                               : 6 channels
Channel layout                           : L R C LFE Ls Rs
Sampling rate                            : 48.0 kHz
Frame rate                               : 31.250 FPS (1536 SPF)
Bit depth                                : 16 bits
Compression mode                         : Lossy
Stream size                              : 390 MiB (1%)
Title                                    : Joker.2019.2160p.BluRay.REMUX.HEVC.DTS-HD.MA.TrueHD.7.1.Atmos-FGT
Language                                 : English
Service kind                             : Complete Main
Default                                  : No
Forced                                   : No

Audio #6
ID                                       : 8
Format                                   : AC-3
Format/Info                              : Audio Coding 3
Commercial name                          : Dolby Digital
Codec ID                                 : A_AC3
Duration                                 : 2 h 1 min
Bit rate mode                            : Constant
Bit rate                                 : 448 kb/s
Channel(s)                               : 6 channels
Channel layout                           : L R C LFE Ls Rs
Sampling rate                            : 48.0 kHz
Frame rate                               : 31.250 FPS (1536 SPF)
Bit depth                                : 16 bits
Compression mode                         : Lossy
Stream size                              : 390 MiB (1%)
Title                                    : Joker.2019.2160p.BluRay.REMUX.HEVC.DTS-HD.MA.TrueHD.7.1.Atmos-FGT
Language                                 : French
Service kind                             : Complete Main
Default                                  : No
Forced                                   : No

Audio #7
ID                                       : 9
Format                                   : AC-3
Format/Info                              : Audio Coding 3
Commercial name                          : Dolby Digital
Codec ID                                 : A_AC3
Duration                                 : 2 h 1 min
Bit rate mode                            : Constant
Bit rate                                 : 448 kb/s
Channel(s)                               : 6 channels
Channel layout                           : L R C LFE Ls Rs
Sampling rate                            : 48.0 kHz
Frame rate                               : 31.250 FPS (1536 SPF)
Bit depth                                : 16 bits
Compression mode                         : Lossy
Stream size                              : 390 MiB (1%)
Title                                    : Joker.2019.2160p.BluRay.REMUX.HEVC.DTS-HD.MA.TrueHD.7.1.Atmos-FGT
Language                                 : Spanish
Service kind                             : Complete Main
Default                                  : No
Forced                                   : No

Text #1
ID                                       : 10
Format                                   : UTF-8
Codec ID                                 : S_TEXT/UTF8
Codec ID/Info                            : UTF-8 Plain Text
Duration                                 : 1 h 58 min
Bit rate                                 : 45 b/s
Count of elements                        : 1424
Stream size                              : 39.0 KiB (0%)
Title                                    : English-SRT
Language                                 : English
Default                                  : Yes
Forced                                   : No

Text #2
ID                                       : 11
Format                                   : UTF-8
Codec ID                                 : S_TEXT/UTF8
Codec ID/Info                            : UTF-8 Plain Text
Duration                                 : 1 h 58 min
Bit rate                                 : 55 b/s
Count of elements                        : 1735
Stream size                              : 47.9 KiB (0%)
Title                                    : English-SDH-SRT
Language                                 : English
Default                                  : No
Forced                                   : No

Text #3
ID                                       : 12
Format                                   : PGS
Muxing mode                              : zlib
Codec ID                                 : S_HDMV/PGS
Codec ID/Info                            : Picture based subtitle format used on BDs/HD-DVDs
Duration                                 : 1 h 58 min
Bit rate                                 : 33.8 kb/s
Count of elements                        : 3480
Stream size                              : 28.6 MiB (0%)
Title                                    : English-PGS
Language                                 : English
Default                                  : No
Forced                                   : No

Text #4
ID                                       : 13
Format                                   : PGS
Muxing mode                              : zlib
Codec ID                                 : S_HDMV/PGS
Codec ID/Info                            : Picture based subtitle format used on BDs/HD-DVDs
Duration                                 : 2 h 1 min
Bit rate                                 : 20.4 kb/s
Count of elements                        : 2230
Stream size                              : 17.7 MiB (0%)
Title                                    : French-PGS
Language                                 : French
Default                                  : No
Forced                                   : No

Text #5
ID                                       : 14
Format                                   : PGS
Muxing mode                              : zlib
Codec ID                                 : S_HDMV/PGS
Codec ID/Info                            : Picture based subtitle format used on BDs/HD-DVDs
Duration                                 : 1 h 57 min
Bit rate                                 : 25.6 kb/s
Count of elements                        : 2384
Stream size                              : 21.5 MiB (0%)
Title                                    : Spanish-PGS
Language                                 : Spanish
Default                                  : No
Forced                                   : No

Text #6
ID                                       : 15
Format                                   : PGS
Muxing mode                              : zlib
Codec ID                                 : S_HDMV/PGS
Codec ID/Info                            : Picture based subtitle format used on BDs/HD-DVDs
Duration                                 : 1 h 31 min
Bit rate                                 : 1 148 b/s
Count of elements                        : 76
Stream size                              : 770 KiB (0%)
Title                                    : French-FORCED-PGS
Language                                 : French
Default                                  : No
Forced                                   : No

Text #7
ID                                       : 16
Format                                   : PGS
Muxing mode                              : zlib
Codec ID                                 : S_HDMV/PGS
Codec ID/Info                            : Picture based subtitle format used on BDs/HD-DVDs
Duration                                 : 1 h 47 min
Bit rate                                 : 960 b/s
Count of elements                        : 74
Stream size                              : 759 KiB (0%)
Title                                    : Spanish-FORCED-PGS
Language                                 : Spanish
Default                                  : No
Forced                                   : No

Menu
00:00:00.000                             : en:Chapter 01
00:10:28.794                             : en:Chapter 02
00:21:01.301                             : en:Chapter 03
00:28:44.973                             : en:Chapter 04
00:38:14.458                             : en:Chapter 05
00:46:21.528                             : en:Chapter 06
00:56:19.292                             : en:Chapter 07
01:04:41.127                             : en:Chapter 08
01:15:41.495                             : en:Chapter 09
01:26:16.045                             : en:Chapter 10
01:37:02.608                             : en:Chapter 11
01:45:50.385                             : en:Chapter 12
01:55:44.646                             : en:Chapter 13



                                                                                                                                                                                                        
                                                                                                                                                                                                                                                                                                                                                                                                                                                                                                                                                                                                                                                                                                                                                                                                                                                      
e88dd9d6b4e973624a50601d8a54cabc.torrent (129.61 KB, 下載次數: 0)

回復

使用道具 舉報

小黑屋|百度云資源論壇 |網站地圖

本網站所有資源來自網絡,如無意中侵犯了您的權益,請發郵件至 [email protected],立即清除相關鏈接

GMT+8, 2020-2-15 15:44 , Processed in 0.101618 second(s), 20 queries .

Powered by Discuz! X3.2

© 2001-2013 Comsenz Inc.

快速回復 返回頂部 返回列表
网络捕鱼赢现金游戏