百度云資源論壇

 找回密碼
 立即注冊
搜索
打印 上一主題 下一主題

[BD-4K] 圣誕老人3/圣誕快樂又瘋狂3 The.Santa.Clause.3.The.Escape.Clause.200...

[復制鏈接]
跳轉到指定樓層
樓主
子完整標題:圣誕老人3/圣誕快樂又瘋狂3 The.Santa.Clause.3.The.Escape.Clause.2006.2160p.DSNP.WEBRip.x265.10bit.HDR.DTS-HD.MA.5.1-TrollUHD 11.78GB




◎譯  名 圣誕老人3 / 圣誕快樂又瘋狂3 / 圣誕老人3:逃跑的圣誕老人
◎片  名 The Santa Clause 3: The Escape Clause
◎年  代 2006
◎產  地 美國
◎類  別 喜劇 / 家庭 / 奇幻 / 冒險
◎語  言 英語
◎上映日期 2006-11-02
◎IMDb評分  4.7/10 from 29679 users
◎片  長 97分鐘
◎導  演 邁克爾·萊拜克 Michael Lembeck
◎編  劇 Ed Decter / 約翰·J·施特勞斯 John J. Strauss
◎主  演 蒂姆·艾倫 Tim Allen
       伊麗莎白·米切爾 Elizabeth Mitchell
       艾力克·洛伊德 Eric Lloyd
       祖德·萊茵霍爾德 Judge Reinhold
       溫迪·古遜 Wendy Crewson
       史賓塞·布瑞斯林 Spencer Breslin
       莉莉娜·穆米 Liliana Mumy
       馬丁·肖特 Martin Short
       安-瑪格麗特 Ann-Margret
       艾倫·阿金 Alan Arkin
       阿比蓋爾·布蕾斯琳 Abigail Breslin
       阿特·拉夫勒 Art LaFleur
       愛莎·泰勒 Aisha Tyler
       凱文·波拉克 Kevin Pollak
       杰·托馬斯 Jay Thomas


◎標  簽 美國 | 喜劇 | 美國電影 | 圣誕老人3 | 圣誕 | 魔幻 | 電影 | 2006

◎簡  介  

  看點:圣誕溫情大戰
  搖動的水晶球里彩紙紛飛,厚厚的積雪覆蓋著房頂,雖然離12月25日還差一個多月,一年期待的圣誕也就慢慢準備開來。既然快圣誕,畫面里總缺不了紅衣白胡子的胖伯伯身影。12年前的感恩節,迪斯尼就涮了圣誕老人一把,沒怎么費力,《圣誕快樂又瘋狂》就卷走了1億4千5百萬美元,睽違8年之后,圣誕老人為找老婆又《圣誕快樂再瘋狂》了一把,票房成績更突破了一籌。
  迪斯尼自然不會放過這棵圣誕檔搖錢樹,召集回原班人馬,先讓圣誕老人拜見岳父岳母,然后騙他丟掉工作,完全喜劇人性化的白胡子伯伯有了圣誕檔的加油助威,保管能燒掉不少觀眾腰包里的錢。
  家庭溫情、溫和笑料和不嫌其多的圣誕氣氛,《老友記》的導演,配上喜劇當家的男主角蒂姆·艾倫那張圣誕氣氛濃厚的臉,這圣誕節之前的“圣誕老人vs.霜人”大戰,憑著全家老少同樂的G的評級,打定了搶劫老美錢包的主意!
  其它: 圣誕將擁有新面貌了!暖洋洋的紅色會被冰塊取代,一切將會變成冰凍世界,忙著處理家庭內事(瘋狂的岳父岳母、懷孕的妻子和前妻一家)的圣誕老人斯科特被攪得頭腦發昏,竟然丟失了圣誕所有權!在冰天雪地的北極里,調侃圣誕老公公的喧鬧喜劇就此上演。 因圣誕老人從房頂跌下而意外接替這項特殊工作,還當了12年精靈們票選的最佳圣誕老人斯科特,每一上銀幕就忙著拯救圣誕--不是意外叢生就是遭遇叛變。像每一個普通人,他必須結婚生子,老是面臨麻煩,還必須把肥肥胖胖的肚子擠進煙囪,連圣誕老人這份職業也老被人覬覦,說不清什么時候就會失業。這也許只像是讓人大笑發暈的無厘頭喜劇,可對于相信圣誕的人們,能像童年一樣相信世上真有精靈、馴鹿與白胡子老頭,便是圣誕最好的禮物。
Video
ID                                       : 1
Format                                   : HEVC
Format/Info                              : High Efficiency Video Coding
Codec ID                                 : V_MPEGH/ISO/HEVC
Duration                                 : 1 h 31 min
Bit rate                                 : 16.0 Mb/s
Width                                    : 3 840 pixels
Height                                   : 2 076 pixels
Display aspect ratio                     : 1.85:1
Frame rate mode                          : Constant
Frame rate                               : 23.976 (24000/1001) FPS
Color space                              : YUV
Chroma subsampling                       : 4:2:0
Bit depth                                : 10 bits
Bits/(Pixel*Frame)                       : 0.084
Stream size                              : 10.3 GiB (87%)
Writing library                          : x265 3.2971180b100f8:[Windows][MSVC 1923][64 bit] 10bit
Encoding settings                        : cpuid=1111039 / frame-threads=4 / numa-pools=0,28 / wpp / no-pmode / no-pme / no-psnr / no-ssim / log-level=2 / input-csp=1 / input-res=3840x2076 / interlace=0 / total-frames=0 / level-idc=0 / high-tier=1 / uhd-bd=0 / ref=5 / no-allow-non-conformance / repeat-headers / annexb / no-aud / no-hrd / info / hash=0 / no-temporal-layers / open-gop / min-keyint=23 / keyint=250 / gop-lookahead=0 / bframes=8 / b-adapt=2 / b-pyramid / bframe-bias=0 / rc-lookahead=40 / lookahead-slices=0 / scenecut=40 / radl=0 / no-splice / no-intra-refresh / ctu=64 / min-cu-size=8 / no-rect / no-amp / max-tu-size=32 / tu-inter-depth=3 / tu-intra-depth=3 / limit-tu=0 / rdoq-level=1 / dynamic-rd=0.00 / no-ssim-rd / signhide / no-tskip / nr-intra=0 / nr-inter=0 / no-constrained-intra / strong-intra-smoothing / max-merge=5 / limit-refs=0 / no-limit-modes / me=3 / subme=4 / merange=57 / temporal-mvp / no-frame-dup / no-hme / weightp / weightb / no-analyze-src-pics / deblock=0:0 / no-sao / no-sao-non-deblock / rd=6 / selective-sao=0 / no-early-skip / rskip / no-fast-intra / no-tskip-fast / no-cu-lossless / b-intra / no-splitrd-skip / rdpenalty=0 / psy-rd=4.00 / psy-rdoq=8.00 / no-rd-refine / no-lossless / cbqpoffs=0 / crqpoffs=0 / rc=crf / crf=17.0 / qcomp=0.60 / qpstep=4 / stats-write=0 / stats-read=0 / ipratio=1.40 / pbratio=1.30 / aq-mode=2 / aq-strength=1.00 / cutree / zone-count=0 / no-strict-cbr / qg-size=32 / no-rc-grain / qpmax=69 / qpmin=0 / no-const-vbv / sar=0 / overscan=0 / videoformat=5 / range=0 / colorprim=9 / transfer=16 / colormatrix=9 / chromaloc=0 / display-window=0 / cll=0,0 / min-luma=0 / max-luma=1023 / log2-max-poc-lsb=8 / vui-timing-info / vui-hrd-info / slices=1 / no-opt-qp-pps / no-opt-ref-list-length-pps / no-multi-pass-opt-rps / scenecut-bias=0.05 / no-opt-cu-delta-qp / no-aq-motion / hdr / hdr-opt / no-dhdr10-opt / no-idr-recovery-sei / analysis-reuse-level=5 / scale-factor=0 / refine-intra=0 / refine-inter=0 / refine-mv=1 / refine-ctu-distortion=0 / no-limit-sao / ctu-info=0 / no-lowpass-dct / refine-analysis-type=0 / copy-pic=1 / max-ausize-factor=1.0 / no-dynamic-refine / no-single-sei / no-hevc-aq / no-svt / no-field / qp-adaptation-range=1.00
Default                                  : Yes
Forced                                   : No
Color range                              : Limited
Color primaries                          : BT.2020
Transfer characteristics                 : PQ
Matrix coefficients                      : BT.2020 non-constant

Audio #1
ID                                       : 2
Format                                   : DTS XLL
Format/Info                              : Digital Theater Systems
Commercial name                          : DTS-HD Master Audio
Codec ID                                 : A_DTS
Duration                                 : 1 h 31 min
Bit rate mode                            : Variable
Bit rate                                 : 2 064 kb/s
Channel(s)                               : 6 channels
Channel layout                           : C L R Ls Rs LFE
Sampling rate                            : 48.0 kHz
Frame rate                               : 93.750 FPS (512 SPF)
Bit depth                                : 16 bits
Compression mode                         : Lossless
Stream size                              : 1.33 GiB (11%)
Title                                    : DTS-HD MA 5.1
Language                                 : English
Default                                  : Yes
Forced                                   : No

Audio #2
ID                                       : 3
Format                                   : AC-3
Format/Info                              : Audio Coding 3
Commercial name                          : Dolby Digital
Codec ID                                 : A_AC3
Duration                                 : 1 h 31 min
Bit rate mode                            : Constant
Bit rate                                 : 192 kb/s
Channel(s)                               : 2 channels
Channel layout                           : L R
Sampling rate                            : 48.0 kHz
Frame rate                               : 31.250 FPS (1536 SPF)
Bit depth                                : 16 bits
Compression mode                         : Lossy
Stream size                              : 126 MiB (1%)
Title                                    : Commentary
Language                                 : English
Service kind                             : Complete Main
Default                                  : No
Forced                                   : No

Text #1
ID                                       : 4
Format                                   : PGS
Muxing mode                              : zlib
Codec ID                                 : S_HDMV/PGS
Codec ID/Info                            : Picture based subtitle format used on BDs/HD-DVDs
Duration                                 : 1 h 31 min
Bit rate                                 : 40.7 kb/s
Count of elements                        : 2784
Stream size                              : 26.6 MiB (0%)
Title                                    : English
Language                                 : English
Default                                  : No
Forced                                   : No

Text #2
ID                                       : 5
Format                                   : PGS
Muxing mode                              : zlib
Codec ID                                 : S_HDMV/PGS
Codec ID/Info                            : Picture based subtitle format used on BDs/HD-DVDs
Duration                                 : 1 h 31 min
Bit rate                                 : 45.2 kb/s
Count of elements                        : 3268
Stream size                              : 29.5 MiB (0%)
Title                                    : English (SDH)
Language                                 : English
Default                                  : No
Forced                                   : No

Text #3
ID                                       : 6
Format                                   : PGS
Muxing mode                              : zlib
Codec ID                                 : S_HDMV/PGS
Codec ID/Info                            : Picture based subtitle format used on BDs/HD-DVDs
Duration                                 : 1 h 26 min
Bit rate                                 : 39.2 kb/s
Count of elements                        : 2588
Stream size                              : 24.2 MiB (0%)
Title                                    : French
Language                                 : French
Default                                  : No
Forced                                   : No

Text #4
ID                                       : 7
Format                                   : PGS
Muxing mode                              : zlib
Codec ID                                 : S_HDMV/PGS
Codec ID/Info                            : Picture based subtitle format used on BDs/HD-DVDs
Duration                                 : 1 h 26 min
Bit rate                                 : 39.3 kb/s
Count of elements                        : 2616
Stream size                              : 24.3 MiB (0%)
Title                                    : German
Language                                 : German
Default                                  : No
Forced                                   : No

Text #5
ID                                       : 8
Format                                   : PGS
Muxing mode                              : zlib
Codec ID                                 : S_HDMV/PGS
Codec ID/Info                            : Picture based subtitle format used on BDs/HD-DVDs
Duration                                 : 1 h 26 min
Bit rate                                 : 36.2 kb/s
Count of elements                        : 2604
Stream size                              : 22.3 MiB (0%)
Title                                    : Italian
Language                                 : Italian
Default                                  : No
Forced                                   : No

Text #6
ID                                       : 9
Format                                   : PGS
Muxing mode                              : zlib
Codec ID                                 : S_HDMV/PGS
Codec ID/Info                            : Picture based subtitle format used on BDs/HD-DVDs
Duration                                 : 1 h 30 min
Bit rate                                 : 34.5 kb/s
Count of elements                        : 2624
Stream size                              : 22.4 MiB (0%)
Language                                 : Spanish
Default                                  : No
Forced                                   : No

Text #7
ID                                       : 10
Format                                   : PGS
Muxing mode                              : zlib
Codec ID                                 : S_HDMV/PGS
Codec ID/Info                            : Picture based subtitle format used on BDs/HD-DVDs
Duration                                 : 1 h 24 min
Bit rate                                 : 595 b/s
Count of elements                        : 48
Stream size                              : 366 KiB (0%)
Language                                 : Spanish
Default                                  : No
Forced                                   : No

Text #8
ID                                       : 11
Format                                   : PGS
Muxing mode                              : zlib
Codec ID                                 : S_HDMV/PGS
Codec ID/Info                            : Picture based subtitle format used on BDs/HD-DVDs
Duration                                 : 1 h 24 min
Bit rate                                 : 595 b/s
Count of elements                        : 48
Stream size                              : 366 KiB (0%)
Language                                 : Spanish
Default                                  : No
Forced                                   : No

Menu
00:00:00.000                             : en:Chapter 01
00:05:51.476                             : en:Chapter 02
00:09:21.394                             : en:Chapter 03
00:14:39.545                             : en:Chapter 04
00:18:12.841                             : en:Chapter 05
00:21:39.256                             : en:Chapter 06
00:26:26.293                             : en:Chapter 07
00:30:02.425                             : en:Chapter 08
00:32:57.350                             : en:Chapter 09
00:43:43.329                             : en:Chapter 10
00:48:42.294                             : en:Chapter 11
00:50:24.813                             : en:Chapter 12
00:54:29.724                             : en:Chapter 13
00:57:36.744                             : en:Chapter 14
01:00:37.634                             : en:Chapter 15
01:06:40.746                             : en:Chapter 16
01:10:31.727                             : en:Chapter 17
01:14:48.650                             : en:Chapter 18
01:19:01.111                             : en:Chapter 19
01:23:37.262                             : en:Chapter 20



                                                                                                                                                                                                        
                                                                                                                                                                                                                                                                                                                                                                                                                                                                                                                                                                                                                                                                                                                                                                                                                                                      

2d8c9b920d97bcc4c67b39f4b0ce1d3b.torrent (59.5 KB, 下載次數: 0)

回復

使用道具 舉報

小黑屋|百度云資源論壇 |網站地圖

本網站所有資源來自網絡,如無意中侵犯了您的權益,請發郵件至 [email protected],立即清除相關鏈接

GMT+8, 2020-7-6 03:40 , Processed in 0.106796 second(s), 20 queries .

Powered by Discuz! X3.2

© 2001-2013 Comsenz Inc.

快速回復 返回頂部 返回列表
网络捕鱼赢现金游戏 快乐8开奖记录 海南环岛自行车赛开奖结果 陕西11选5前三4码遗漏 如何下载同花顺手机炒股软件 赛车总动员 澳门百家乐代理 在哪里能买到青海快三 秒速快3秘诀 上证指数行情走势图 天天彩选4中奖规则