百度云資源論壇

 找回密碼
 立即注冊
搜索
打印 上一主題 下一主題

[BD-4K] 阿波羅11號/阿波羅登月 Apollo.11.2019.DOCU.2160p.BluRay.x265.10bit.SD...

[復制鏈接]
跳轉到指定樓層
樓主
帖子完整標題:阿波羅11號/阿波羅登月 Apollo.11.2019.DOCU.2160p.BluRay.x265.10bit.SDR.DTS-HD.MA.5.1-SWTYBLZ 40.49GB




◎譯  名 阿波羅11號 / 阿波羅登月
◎片  名 Apollo 11
◎年  代 2019
◎產  地 美國
◎類  別 紀錄片
◎語  言 英語
◎上映日期 2019-01-24(圣丹斯電影節) / 2019-03-01(美國)
◎IMDb評分  8.4/10 from 3614 users
◎片  長 90分鐘
◎導  演 托德·道格拉斯·米勒 Todd Douglas Miller
◎主  演 巴茲·奧德林 Buzz Aldrin
      瓊·安·阿徹 Joan Ann Archer
      珍妮特·阿姆斯特朗 Janet Armstrong
      尼爾·阿姆斯特朗 Neil Armstrong
      約翰尼·卡森 Johnny Carson
      克利福德·E·查爾斯沃思 Clifford E. Charlesworth
      邁克爾·柯林斯 Michael Collins
      沃爾特·克朗凱特 Walter Cronkite
      查爾斯·杜克 Charles Duke
      吉因·克蘭茲 Gene Kranz
      吉姆·洛威爾 Jim Lovell
      格林·倫尼 Glynn Lunney
      理查德·尼克松 Richard Nixon
      迪克·斯雷頓 Deke Slayton


◎標  簽 紀錄片 | 美國 | 2019 | 登月 | 歷史 | 阿波羅 | 科技 | IMAX

◎簡  介  

  這部93分鐘的紀錄片由Neon和CNN Film公司出品,采用了首次發現的65毫米大畫幅膠卷拍攝的影像資料和超過11,000小時的原始音頻資料,為人類歷史上最具標志性和歷史性的時刻展現全新的視角。 《阿波羅11號》用電影的方式講述了這一航天傳奇,”
Video
ID                                       : 1
Format                                   : HEVC
Format/Info                              : High Efficiency Video Coding
Codec ID                                 : V_MPEGH/ISO/HEVC
Duration                                 : 1 h 32 min
Bit rate                                 : 59.3 Mb/s
Width                                    : 3 840 pixels
Height                                   : 1 746 pixels
Display aspect ratio                     : 2.2:1
Frame rate mode                          : Constant
Frame rate                               : 23.976 (24000/1001) FPS
Color space                              : YUV
Chroma subsampling                       : 4:2:0
Bit depth                                : 10 bits
Bits/(Pixel*Frame)                       : 0.369
Stream size                              : 38.5 GiB (96%)
Title                                    : Apollo.11.2019.DOCU.2160p.BluRay.x265.10bit.SDR.DTS-HD.MA.5.1-SWTYBLZ
Writing library                          : x265 3.0ed72af837053:[Windows][GCC 8.2.0][64 bit] 10bit
Encoding settings                        : cpuid=1111039 / frame-threads=16 / numa-pools=44,44 / wpp / no-pmode / no-pme / no-psnr / no-ssim / log-level=2 / input-csp=1 / input-res=3840x1746 / interlace=0 / total-frames=133641 / level-idc=51 / high-tier=1 / uhd-bd=0 / ref=3 / no-allow-non-conformance / repeat-headers / annexb / aud / hrd / info / hash=0 / no-temporal-layers / no-open-gop / min-keyint=1 / keyint=24 / gop-lookahead=0 / bframes=4 / b-adapt=2 / b-pyramid / bframe-bias=0 / rc-lookahead=25 / lookahead-slices=4 / scenecut=40 / radl=0 / no-splice / no-intra-refresh / ctu=64 / min-cu-size=8 / no-rect / no-amp / max-tu-size=32 / tu-inter-depth=1 / tu-intra-depth=1 / limit-tu=0 / rdoq-level=0 / dynamic-rd=0.00 / no-ssim-rd / signhide / no-tskip / nr-intra=0 / nr-inter=0 / no-constrained-intra / strong-intra-smoothing / max-merge=2 / limit-refs=3 / no-limit-modes / me=1 / subme=2 / merange=57 / temporal-mvp / weightp / no-weightb / no-analyze-src-pics / deblock=0:0 / no-sao / no-sao-non-deblock / rd=3 / no-early-skip / rskip / no-fast-intra / no-tskip-fast / no-cu-lossless / no-b-intra / no-splitrd-skip / rdpenalty=0 / psy-rd=2.00 / psy-rdoq=0.00 / no-rd-refine / no-lossless / cbqpoffs=0 / crqpoffs=0 / rc=crf / crf=16.0 / qcomp=0.60 / qpstep=4 / stats-write=0 / stats-read=0 / vbv-maxrate=160000 / vbv-bufsize=160000 / vbv-init=0.9 / crf-max=0.0 / crf-min=0.0 / ipratio=1.40 / pbratio=1.30 / aq-mode=1 / aq-strength=1.00 / cutree / zone-count=0 / no-strict-cbr / qg-size=32 / no-rc-grain / qpmax=69 / qpmin=0 / no-const-vbv / sar=1 / overscan=0 / videoformat=5 / range=0 / colorprim=2 / transfer=2 / colormatrix=2 / chromaloc=0 / display-window=0 / max-cll=0,0 / min-luma=0 / max-luma=1023 / log2-max-poc-lsb=8 / vui-timing-info / vui-hrd-info / slices=1 / opt-qp-pps / opt-ref-list-length-pps / no-multi-pass-opt-rps / scenecut-bias=0.05 / no-opt-cu-delta-qp / no-aq-motion / no-hdr / no-hdr-opt / no-dhdr10-opt / no-idr-recovery-sei / analysis-reuse-level=5 / scale-factor=0 / refine-intra=0 / refine-inter=0 / refine-mv=0 / refine-ctu-distortion=0 / no-limit-sao / ctu-info=0 / no-lowpass-dct / refine-analysis-type=0 / copy-pic=1 / max-ausize-factor=1.0 / no-dynamic-refine / no-single-sei / no-hevc-aq / qp-adaptation-range=1.00
Language                                 : English
Default                                  : Yes
Forced                                   : No

Audio #1
ID                                       : 2
Format                                   : DTS XLL
Format/Info                              : Digital Theater Systems
Commercial name                          : DTS-HD Master Audio
Codec ID                                 : A_DTS
Duration                                 : 1 h 37 min
Bit rate mode                            : Variable
Bit rate                                 : 1 847 kb/s
Channel(s)                               : 6 channels
Channel layout                           : C L R Ls Rs LFE
Sampling rate                            : 48.0 kHz
Frame rate                               : 93.750 FPS (512 SPF)
Bit depth                                : 16 bits
Compression mode                         : Lossless
Stream size                              : 1.26 GiB (3%)
Title                                    : Apollo.11.2019.DOCU.2160p.BluRay.x265.10bit.SDR.DTS-HD.MA.5.1-SWTYBLZ
Language                                 : English
Default                                  : Yes
Forced                                   : No

Audio #2
ID                                       : 3
Format                                   : AC-3
Format/Info                              : Audio Coding 3
Commercial name                          : Dolby Digital
Codec ID                                 : A_AC3
Duration                                 : 1 h 37 min
Bit rate mode                            : Constant
Bit rate                                 : 640 kb/s
Channel(s)                               : 6 channels
Channel layout                           : L R C LFE Ls Rs
Sampling rate                            : 48.0 kHz
Frame rate                               : 31.250 FPS (1536 SPF)
Bit depth                                : 16 bits
Compression mode                         : Lossy
Stream size                              : 448 MiB (1%)
Title                                    : Apollo.11.2019.DOCU.2160p.BluRay.x265.10bit.SDR.DTS-HD.MA.5.1-SWTYBLZ
Language                                 : English
Service kind                             : Complete Main
Default                                  : No
Forced                                   : No

Text #1
ID                                       : 4
Format                                   : UTF-8
Codec ID                                 : S_TEXT/UTF8
Codec ID/Info                            : UTF-8 Plain Text
Duration                                 : 1 h 29 min
Bit rate                                 : 88 b/s
Count of elements                        : 1324
Stream size                              : 58.6 KiB (0%)
Title                                    : English-SRT
Language                                 : English
Default                                  : Yes
Forced                                   : No

Text #2
ID                                       : 5
Format                                   : UTF-8
Codec ID                                 : S_TEXT/UTF8
Codec ID/Info                            : UTF-8 Plain Text
Duration                                 : 1 h 31 min
Bit rate                                 : 89 b/s
Count of elements                        : 1367
Stream size                              : 59.4 KiB (0%)
Title                                    : English-SDH-SRT
Language                                 : English
Default                                  : No
Forced                                   : No

Text #3
ID                                       : 6
Format                                   : PGS
Muxing mode                              : zlib
Codec ID                                 : S_HDMV/PGS
Codec ID/Info                            : Picture based subtitle format used on BDs/HD-DVDs
Duration                                 : 1 h 31 min
Bit rate                                 : 68.7 kb/s
Count of elements                        : 2738
Stream size                              : 45.2 MiB (0%)
Title                                    : English-PGS
Language                                 : English
Default                                  : No
Forced                                   : No

Menu
00:00:00.000                             : en:Chapter 01
00:07:16.352                             : en:Chapter 02
00:14:33.914                             : en:Chapter 03
00:22:30.098                             : en:Chapter 04
00:29:19.591                             : en:Chapter 05
00:35:45.059                             : en:Chapter 06
00:43:36.238                             : en:Chapter 07
00:52:15.715                             : en:Chapter 08
01:02:03.010                             : en:Chapter 09
01:12:37.478                             : en:Chapter 10
01:20:29.783                             : en:Chapter 11
01:29:31.199                             : en:Chapter 12



                                                                                                                                                                                                        
                                                                                                                                                                                                                                                                                                                                                                                                                                                                                                                                                                                                                                                                                                                                                                                                                                                       65eb07c8bb4a93c2ea0cea6cf1c7b207.torrent (101.85 KB, 下載次數: 0)

回復

使用道具 舉報

小黑屋|百度云資源論壇 |網站地圖

本網站所有資源來自網絡,如無意中侵犯了您的權益,請發郵件至 [email protected],立即清除相關鏈接

GMT+8, 2020-10-24 22:22 , Processed in 0.095044 second(s), 19 queries .

Powered by Discuz! X3.2

© 2001-2013 Comsenz Inc.

快速回復 返回頂部 返回列表
网络捕鱼赢现金游戏 江苏体彩7位数官网 内蒙古十一选五最高遗漏 贵州快三平台 福建体彩票31选7号码 手机彩票网论坛 浙江20选5最新开 股票指数的计算公式 怎么玩安徽快三技巧 模拟炒股软件 福彩江苏快三怎么玩