百度云資源論壇

標題: 惡與假面的規則 Evil.and.the.Mask.2018.JAPANESE.1080p.BluRay.x264-WiKi ... [打印本頁]

作者: 百度云電影    時間: 2020-9-5 09:09
標題: 惡與假面的規則 Evil.and.the.Mask.2018.JAPANESE.1080p.BluRay.x264-WiKi ...
帖子完整標題:惡與假面的規則 Evil.and.the.Mask.2018.JAPANESE.1080p.BluRay.x264-WiKi 8.43GB




◎譯  名 惡與假面的規則/Evil and The Mask
◎片  名 悪と仮面のルール
◎年  代 2018
◎產  地 日本
◎類  別 劇情 / 驚悚 / 犯罪
◎語  言 日語
◎上映日期 2018-01-13(日本)
◎片  長 139分鐘
◎導  演 中村哲平
◎編  劇 中村文則 Fuminori Nakamura / 黑巖勉 Tsutomu Kuroiwa
◎主  演 玉木宏 Hiroshi Tamaki
       新木優子 Yuko Araki
       吉澤亮 Yoshizawa Ryo
       中村達也 Tatsuya Nakamura
       柄本明 Akira Emoto
       光石研 Ken Mitsuishi

◎標  簽 日本 | 玉木宏 | 日本電影 | 懸疑 | 2018 | 日影 | 新木優子 | 電影

◎簡  介

  某大財團財閥之子久喜文宏,在11歲那年被父親(村井國夫 飾)告知,他來到這個世上的目標就是要被打造成為足以給世人造成巨大災難的極致之惡。為了讓兒子完成蛻變,惡毒的父親竟不惜玷污少年的初戀女孩香織。危機時刻,少年殺死了父親,逃遁失蹤。十幾年后,長大了的文宏(玉木宏 飾)改頭換面,以新谷弘一的名字展開新的生活。他千方百計找到香織(新木裕子 飾),從此逡巡在對方身邊,為了保護香織不惜再度殺人。未過多久,知曉弘一過往人生的同父異母哥哥久喜干彥(仲村達也 飾)與策劃顛覆日本的恐怖分子伊藤亮祐(吉澤亮 飾)勾結在一起,他們更將目標鎖定在香織身上。弘一不得不與自己的過去以及黑暗的命運做個了斷……
  
  本片根據芥川賞獲獎作家中村文則的同名小說改編。
Video
ID                                       : 1
Format                                   : AVC
Format/Info                              : Advanced Video Codec
Format settings                          : CABAC / 5 Ref Frames
Format settings, CABAC                   : Yes
Format settings, ReFrames                : 5 frames
Codec ID                                 : V_MPEG4/ISO/AVC
Duration                                 : 2 h 19 min
Bit rate                                 : 8 226 kb/s
Width                                    : 1 920 pixels
Height                                   : 804 pixels
Display aspect ratio                     : 2.40:1
Frame rate mode                          : Constant
Frame rate                               : 23.976 (24000/1001/189150) FPS
Color space                              : YUV
Chroma subsampling                       : 4:2:0
Bit depth                                : 8 bits
Scan type                                : Progressive
Bits/(Pixel*Frame)                       : 0.222
Stream size                              : 7.99 GiB (95%)
Title                                    : x264_L4.1 @ 8,226 Kbps (crf 17)
Writing library                          : x264 core 129 r2245+704+36 8e61944 tMod+MixAQ
Encoding settings                        : cabac=1 / ref=5 / deblock=1:-3:-3 / analyse=0x3:0x133 / me=umh / subme=11 / psy=1 / fade_compensate=0.00 / psy_rd=1.05:0.10 / mixed_ref=1 / me_range=64 / chroma_me=1 / trellis=2 / 8x8dct=1 / cqm=0 / deadzone=21,11 / fast_pskip=0 / chroma_qp_offset=-3 / threads=12 / lookahead_threads=2 / sliced_threads=0 / nr=0 / decimate=1 / interlaced=0 / bluray_compat=0 / constrained_intra=0 / fgo=0 / bframes=10 / b_pyramid=2 / b_adapt=2 / b_bias=0 / direct=3 / weightb=1 / open_gop=0 / weightp=2 / keyint=250 / keyint_min=23 / scenecut=40 / intra_refresh=0 / rc=crf / mbtree=0 / crf=17.0000 / qcomp=0.70 / qpmin=0 / qpmax=69 / qpstep=4 / ip_ratio=1.25 / pb_ratio=1.15 / aq=1 / aq-strength=0.85 / aq-sensitivity=10.00 / aq-ifactor=1.00 / aq-pfactor=1.00 / aq-bfactor=1.00 / aq2=0
Language                                 : Japanese
Default                                  : Yes
Forced                                   : No

Audio
ID                                       : 2
Format                                   : AC-3
Format/Info                              : Audio Coding 3
Codec ID                                 : A_AC3
Duration                                 : 2 h 19 min
Bit rate mode                            : Constant
Bit rate                                 : 448 kb/s
Channel(s)                               : 6 channels
Channel positions                        : Front: L C R, Side: L R, LFE
Sampling rate                            : 48.0 kHz
Frame rate                               : 31.250 FPS (1536 SPF)
Bit depth                                : 16 bits
Compression mode                         : Lossy
Stream size                              : 446 MiB (5%)
Title                                    : Japanese DD 5.1 @ 448 Kbps
Language                                 : Japanese
Service kind                             : Complete Main
Default                                  : Yes
Forced                                   : No

Text
ID                                       : 3
Format                                   : ASS
Codec ID                                 : S_TEXT/ASS
Codec ID/Info                            : Advanced Sub Station Alpha
Duration                                 : 2 h 13 min
Bit rate                                 : 70 b/s
Count of elements                        : 1347
Compression mode                         : Lossless
Stream size                              : 69.5 KiB (0%)
Title                                    : Traditional Chinese (SUBPIG)
Language                                 : Chinese
Default                                  : Yes
Forced                                   : No

Menu
00:00:00.000                             : en:00:00:00.000
00:14:39.212                             : en:00:14:39.212
00:30:25.115                             : en:00:30:25.115
00:46:35.251                             : en:00:46:35.251
01:05:45.150                             : en:01:05:45.150
01:27:44.551                             : en:01:27:44.551
01:48:21.870                             : en:01:48:21.870
02:13:30.002                             : en:02:13:30.002




                                                                                                                                                                                                        
                                                                                                                                                                                                                                                                                                                                                                                                                                                                                    
06b5997ecd47522feda362f559c2926a.zip (85.81 KB, 下載次數: 0)




歡迎光臨 百度云資源論壇 (http://www.638074.live/) Powered by Discuz! X3.2
网络捕鱼赢现金游戏 天津快乐十分快五遗漏 怎样查安徽快3遗漏号码 浙江11选五遗漏一定牛走势图 一头一尾打一生肖 美东2分彩开奖直播 中国一重股票分析 湖北11选5最快开奖结果 特马公开一肖资料大全 股票短线qq群 5分快3计划最高24倍